  0
SECTION
  2
HEADER
  9
$ACADVER
  1
AC1015
  9
$ACADMAINTVER
 70
     6
  9
$DWGCODEPAGE
  3
ANSI_1252
  9
$INSBASE
 10
0.0
 20
0.0
 30
0.0
  9
$EXTMIN
 10
-5.14489345779498
 20
-0.23452093780543
 30
0.0
  9
$EXTMAX
 10
291.8551065422055
 20
209.7654790621948
 30
0.0
  9
$LIMMIN
 10
0.0
 20
0.0
  9
$LIMMAX
 10
12.0
 20
9.0
  9
$ORTHOMODE
 70
     0
  9
$REGENMODE
 70
     1
  9
$FILLMODE
 70
     1
  9
$QTEXTMODE
 70
     0
  9
$MIRRTEXT
 70
     1
  9
$LTSCALE
 40
1.0
  9
$ATTMODE
 70
     1
  9
$TEXTSIZE
 40
0.2
  9
$TRACEWID
 40
0.05
  9
$TEXTSTYLE
  7
Standard
  9
$CLAYER
  8
0
  9
$CELTYPE
  6
ByLayer
  9
$CECOLOR
 62
   256
  9
$CELTSCALE
 40
1.0
  9
$DISPSILH
 70
     0
  9
$DIMSCALE
 40
1.0
  9
$DIMASZ
 40
0.18
  9
$DIMEXO
 40
0.0625
  9
$DIMDLI
 40
0.38
  9
$DIMRND
 40
0.0
  9
$DIMDLE
 40
0.0
  9
$DIMEXE
 40
0.18
  9
$DIMTP
 40
0.0
  9
$DIMTM
 40
0.0
  9
$DIMTXT
 40
0.18
  9
$DIMCEN
 40
0.09
  9
$DIMTSZ
 40
0.0
  9
$DIMTOL
 70
     0
  9
$DIMLIM
 70
     0
  9
$DIMTIH
 70
     1
  9
$DIMTOH
 70
     1
  9
$DIMSE1
 70
     0
  9
$DIMSE2
 70
     0
  9
$DIMTAD
 70
     0
  9
$DIMZIN
 70
     0
  9
$DIMBLK
  1

  9
$DIMASO
 70
     1
  9
$DIMSHO
 70
     1
  9
$DIMPOST
  1

  9
$DIMAPOST
  1

  9
$DIMALT
 70
     0
  9
$DIMALTD
 70
     2
  9
$DIMALTF
 40
25.4
  9
$DIMLFAC
 40
1.0
  9
$DIMTOFL
 70
     0
  9
$DIMTVP
 40
0.0
  9
$DIMTIX
 70
     0
  9
$DIMSOXD
 70
     0
  9
$DIMSAH
 70
     0
  9
$DIMBLK1
  1

  9
$DIMBLK2
  1

  9
$DIMSTYLE
  2
Standard
  9
$DIMCLRD
 70
     0
  9
$DIMCLRE
 70
     0
  9
$DIMCLRT
 70
     0
  9
$DIMTFAC
 40
1.0
  9
$DIMGAP
 40
0.09
  9
$DIMJUST
 70
     0
  9
$DIMSD1
 70
     0
  9
$DIMSD2
 70
     0
  9
$DIMTOLJ
 70
     1
  9
$DIMTZIN
 70
     0
  9
$DIMALTZ
 70
     0
  9
$DIMALTTZ
 70
     0
  9
$DIMUPT
 70
     0
  9
$DIMDEC
 70
     4
  9
$DIMTDEC
 70
     4
  9
$DIMALTU
 70
     2
  9
$DIMALTTD
 70
     2
  9
$DIMTXSTY
  7
Standard
  9
$DIMAUNIT
 70
     0
  9
$DIMADEC
 70
     0
  9
$DIMALTRND
 40
0.0
  9
$DIMAZIN
 70
     0
  9
$DIMDSEP
 70
    46
  9
$DIMATFIT
 70
     3
  9
$DIMFRAC
 70
     0
  9
$DIMLDRBLK
  1

  9
$DIMLUNIT
 70
     2
  9
$DIMLWD
 70
    -2
  9
$DIMLWE
 70
    -2
  9
$DIMTMOVE
 70
     0
  9
$LUNITS
 70
     2
  9
$LUPREC
 70
     4
  9
$SKETCHINC
 40
0.1
  9
$FILLETRAD
 40
0.5
  9
$AUNITS
 70
     0
  9
$AUPREC
 70
     0
  9
$MENU
  1
.
  9
$ELEVATION
 40
0.0
  9
$PELEVATION
 40
0.0
  9
$THICKNESS
 40
0.0
  9
$LIMCHECK
 70
     0
  9
$CHAMFERA
 40
0.5
  9
$CHAMFERB
 40
0.5
  9
$CHAMFERC
 40
1.0
  9
$CHAMFERD
 40
0.0
  9
$SKPOLY
 70
     0
  9
$TDCREATE
 40
2456997.60666669
  9
$TDUCREATE
 40
2456997.565000023
  9
$TDUPDATE
 40
2456997.606667049
  9
$TDUUPDATE
 40
2456997.565000382
  9
$TDINDWG
 40
0.0000000116
  9
$TDUSRTIMER
 40
0.0000000116
  9
$USRTIMER
 70
     1
  9
$ANGBASE
 50
0.0
  9
$ANGDIR
 70
     0
  9
$PDMODE
 70
     0
  9
$PDSIZE
 40
0.0
  9
$PLINEWID
 40
0.0
  9
$SPLFRAME
 70
     0
  9
$SPLINETYPE
 70
     6
  9
$SPLINESEGS
 70
     8
  9
$HANDSEED
  5
57F
  9
$SURFTAB1
 70
     6
  9
$SURFTAB2
 70
     6
  9
$SURFTYPE
 70
     6
  9
$SURFU
 70
     6
  9
$SURFV
 70
     6
  9
$UCSBASE
  2

  9
$UCSNAME
  2

  9
$UCSORG
 10
0.0
 20
0.0
 30
0.0
  9
$UCSXDIR
 10
1.0
 20
0.0
 30
0.0
  9
$UCSYDIR
 10
0.0
 20
1.0
 30
0.0
  9
$UCSORTHOREF
  2

  9
$UCSORTHOVIEW
 70
     0
  9
$UCSORGTOP
 10
0.0
 20
0.0
 30
0.0
  9
$UCSORGBOTTOM
 10
0.0
 20
0.0
 30
0.0
  9
$UCSORGLEFT
 10
0.0
 20
0.0
 30
0.0
  9
$UCSORGRIGHT
 10
0.0
 20
0.0
 30
0.0
  9
$UCSORGFRONT
 10
0.0
 20
0.0
 30
0.0
  9
$UCSORGBACK
 10
0.0
 20
0.0
 30
0.0
  9
$PUCSBASE
  2

  9
$PUCSNAME
  2

  9
$PUCSORG
 10
0.0
 20
0.0
 30
0.0
  9
$PUCSXDIR
 10
1.0
 20
0.0
 30
0.0
  9
$PUCSYDIR
 10
0.0
 20
1.0
 30
0.0
  9
$PUCSORTHOREF
  2

  9
$PUCSORTHOVIEW
 70
     0
  9
$PUCSORGTOP
 10
0.0
 20
0.0
 30
0.0
  9
$PUCSORGBOTTOM
 10
0.0
 20
0.0
 30
0.0
  9
$PUCSORGLEFT
 10
0.0
 20
0.0
 30
0.0
  9
$PUCSORGRIGHT
 10
0.0
 20
0.0
 30
0.0
  9
$PUCSORGFRONT
 10
0.0
 20
0.0
 30
0.0
  9
$PUCSORGBACK
 10
0.0
 20
0.0
 30
0.0
  9
$USERI1
 70
     0
  9
$USERI2
 70
     0
  9
$USERI3
 70
     0
  9
$USERI4
 70
     0
  9
$USERI5
 70
     0
  9
$USERR1
 40
18.1
  9
$USERR2
 40
0.0
  9
$USERR3
 40
0.0
  9
$USERR4
 40
0.0
  9
$USERR5
 40
0.0
  9
$WORLDVIEW
 70
     1
  9
$SHADEDGE
 70
     3
  9
$SHADEDIF
 70
    70
  9
$TILEMODE
 70
     1
  9
$MAXACTVP
 70
    64
  9
$PINSBASE
 10
0.0
 20
0.0
 30
0.0
  9
$PLIMCHECK
 70
     0
  9
$PEXTMIN
 10
1.00000000000000E+20
 20
1.00000000000000E+20
 30
1.00000000000000E+20
  9
$PEXTMAX
 10
-1.00000000000000E+20
 20
-1.00000000000000E+20
 30
-1.00000000000000E+20
  9
$PLIMMIN
 10
0.0
 20
0.0
  9
$PLIMMAX
 10
12.0
 20
9.0
  9
$UNITMODE
 70
     0
  9
$VISRETAIN
 70
     1
  9
$PLINEGEN
 70
     0
  9
$PSLTSCALE
 70
     1
  9
$TREEDEPTH
 70
  3020
  9
$CMLSTYLE
  2
Standard
  9
$CMLJUST
 70
     0
  9
$CMLSCALE
 40
1.0
  9
$PROXYGRAPHICS
 70
     1
  9
$MEASUREMENT
 70
     1
  9
$CELWEIGHT
370
    -1
  9
$ENDCAPS
280
     0
  9
$JOINSTYLE
280
     0
  9
$LWDISPLAY
290
     0
  9
$INSUNITS
 70
     4
  9
$HYPERLINKBASE
  1

  9
$STYLESHEET
  1

  9
$XEDIT
290
     1
  9
$CEPSNTYPE
380
     0
  9
$PSTYLEMODE
290
     1
  9
$FINGERPRINTGUID
  2
{E600DA60-7C3B-43B3-BFB5-BE48CBF8688C}
  9
$VERSIONGUID
  2
{FAEB1C32-E019-11D5-929B-00C0DF256EC4}
  9
$EXTNAMES
290
     1
  9
$PSVPSCALE
 40
0.0
  9
$OLESTARTUP
290
     0
  0
ENDSEC
  0
SECTION
  2
CLASSES
  0
CLASS
  1
ACDBDICTIONARYWDFLT
  2
AcDbDictionaryWithDefault
  3
ObjectDBX Classes
 90
        0
280
     0
281
     0
  0
CLASS
  1
VISUALSTYLE
  2
AcDbVisualStyle
  3
ObjectDBX Classes
 90
     4095
280
     0
281
     0
  0
CLASS
  1
MATERIAL
  2
AcDbMaterial
  3
ObjectDBX Classes
 90
     1153
280
     0
281
     0
  0
CLASS
  1
DICTIONARYVAR
  2
AcDbDictionaryVar
  3
ObjectDBX Classes
 90
        0
280
     0
281
     0
  0
CLASS
  1
ACDBPLACEHOLDER
  2
AcDbPlaceHolder
  3
ObjectDBX Classes
 90
        0
280
     0
281
     0
  0
CLASS
  1
LAYOUT
  2
AcDbLayout
  3
ObjectDBX Classes
 90
        0
280
     0
281
     0
  0
ENDSEC
  0
SECTION
  2
TABLES
  0
TABLE
  2
VPORT
  5
8
330
0
100
AcDbSymbolTable
 70
     1
  0
VPORT
  5
29
330
8
100
AcDbSymbolTableRecord
100
AcDbViewportTableRecord
  2
*Active
 70
     0
 10
0.0
 20
0.0
 11
1.0
 21
1.0
 12
143.3551065422052
 22
104.7654790621947
 13
0.0
 23
0.0
 14
0.5
 24
0.5
 15
0.5
 25
0.5
 16
0.0
 26
0.0
 36
1.0
 17
0.0
 27
0.0
 37
0.0
 40
231.0000000000003
 41
1.60267857142857
 42
50.0
 43
0.0
 44
0.0
 50
0.0
 51
0.0
 71
     0
 72
   100
 73
     1
 74
     3
 75
     0
 76
     0
 77
     0
 78
     0
281
     0
 65
     1
110
0.0
120
0.0
130
0.0
111
1.0
121
0.0
131
0.0
112
0.0
122
1.0
132
0.0
 79
     0
146
0.0
  0
ENDTAB
  0
TABLE
  2
LTYPE
  5
5
330
0
100
AcDbSymbolTable
 70
     8
  0
LTYPE
  5
14
330
5
100
AcDbSymbolTableRecord
100
AcDbLinetypeTableRecord
  2
ByBlock
 70
     0
  3

 72
    65
 73
     0
 40
0.0
  0
LTYPE
  5
15
330
5
100
AcDbSymbolTableRecord
100
AcDbLinetypeTableRecord
  2
ByLayer
 70
     0
  3

 72
    65
 73
     0
 40
0.0
  0
LTYPE
  5
16
330
5
100
AcDbSymbolTableRecord
100
AcDbLinetypeTableRecord
  2
Continuous
 70
     0
  3
Solid line
 72
    65
 73
     0
 40
0.0
  0
LTYPE
  5
3F
330
5
100
AcDbSymbolTableRecord
100
AcDbLinetypeTableRecord
  2
DASHED
 70
     0
  3
Dashed
 72
    65
 73
     2
 40
15.0
 49
7.0
 74
     0
 49
-8.0
 74
     0
  0
LTYPE
  5
40
330
5
100
AcDbSymbolTableRecord
100
AcDbLinetypeTableRecord
  2
DOTTED
 70
     0
  3
Dotted
 72
    65
 73
     2
 40
1.0
 49
0.0
 74
     0
 49
-1.0
 74
     0
  0
LTYPE
  5
41
330
5
100
AcDbSymbolTableRecord
100
AcDbLinetypeTableRecord
  2
DOT_CENTER
 70
     0
  3
Dot_Center
 72
    65
 73
     4
 40
14.0
 49
12.0
 74
     0
 49
-1.0
 74
     0
 49
0.0
 74
     0
 49
-1.0
 74
     0
  0
LTYPE
  5
42
330
5
100
AcDbSymbolTableRecord
100
AcDbLinetypeTableRecord
  2
LONG_DASHED
 70
     0
  3
Long_Dashed
 72
    65
 73
     2
 40
15.0
 49
10.0
 74
     0
 49
-5.0
 74
     0
  0
LTYPE
  5
43
330
5
100
AcDbSymbolTableRecord
100
AcDbLinetypeTableRecord
  2
DASH_CENTER
 70
     0
  3
Dash_Center
 72
    65
 73
     4
 40
14.0
 49
11.0
 74
     0
 49
-1.0
 74
     0
 49
1.0
 74
     0
 49
-1.0
 74
     0
  0
LTYPE
  5
44
330
5
100
AcDbSymbolTableRecord
100
AcDbLinetypeTableRecord
  2
PHANTOM
 70
     0
  3
Phantom
 72
    65
 73
     6
 40
13.0
 49
10.0
 74
     0
 49
-1.0
 74
     0
 49
0.0
 74
     0
 49
-1.0
 74
     0
 49
0.0
 74
     0
 49
-1.0
 74
     0
  0
LTYPE
  5
45
330
5
100
AcDbSymbolTableRecord
100
AcDbLinetypeTableRecord
  2
CENTER_DASH_DASH
 70
     0
  3
Center_Dash_Dash
 72
    65
 73
     6
 40
14.0
 49
9.0
 74
     0
 49
-1.0
 74
     0
 49
1.0
 74
     0
 49
-1.0
 74
     0
 49
1.0
 74
     0
 49
-1.0
 74
     0
  0
ENDTAB
  0
TABLE
  2
LAYER
  5
2
330
0
100
AcDbSymbolTable
 70
     2
  0
LAYER
  5
10
330
2
100
AcDbSymbolTableRecord
100
AcDbLayerTableRecord
  2
0
 70
     0
 62
     7
  6
Continuous
370
    -3
390
F
  0
LAYER
  5
46
330
2
100
AcDbSymbolTableRecord
100
AcDbLayerTableRecord
  2
1
 70
     0
 62
     7
  6
Continuous
370
    -3
390
F
  0
ENDTAB
  0
TABLE
  2
STYLE
  5
3
330
0
100
AcDbSymbolTable
 70
     4
  0
STYLE
  5
11
330
3
100
AcDbSymbolTableRecord
100
AcDbTextStyleTableRecord
  2
Standard
 70
     0
 40
0.0
 41
1.0
 50
0.0
 71
     0
 42
0.2
  3
txt
  4

  0
STYLE
  5
9B
330
3
100
AcDbSymbolTableRecord
100
AcDbTextStyleTableRecord
  2
CONVERTER_11
 70
     0
 40
0.0
 41
1.2
 50
0.0
 71
     0
 42
0.2
  3
ARIAL.TTF
  4

  0
STYLE
  5
A0
330
3
100
AcDbSymbolTableRecord
100
AcDbTextStyleTableRecord
  2
CONVERTER_12
 70
     0
 40
0.0
 41
1.38
 50
0.0
 71
     0
 42
0.2
  3
ARIAL.TTF
  4

  0
STYLE
  5
525
330
3
100
AcDbSymbolTableRecord
100
AcDbTextStyleTableRecord
  2
CONVERTER_13
 70
     0
 40
0.0
 41
0.95
 50
0.0
 71
     0
 42
0.2
  3
simplex.shx
  4

  0
ENDTAB
  0
TABLE
  2
VIEW
  5
6
330
0
100
AcDbSymbolTable
 70
     0
  0
ENDTAB
  0
TABLE
  2
UCS
  5
7
330
0
100
AcDbSymbolTable
 70
     0
  0
ENDTAB
  0
TABLE
  2
APPID
  5
9
330
0
100
AcDbSymbolTable
 70
     1
  0
APPID
  5
12
330
9
100
AcDbSymbolTableRecord
100
AcDbRegAppTableRecord
  2
ACAD
 70
     0
  0
ENDTAB
  0
TABLE
  2
DIMSTYLE
  5
A
330
0
100
AcDbSymbolTable
 70
     5
100
AcDbDimStyleTable
  0
DIMSTYLE
105
27
330
A
100
AcDbSymbolTableRecord
100
AcDbDimStyleTableRecord
  2
Standard
 70
     0
178
     0
340
11
  0
DIMSTYLE
105
531
102
{ACAD_REACTORS
330
532
102
}
330
A
100
AcDbSymbolTableRecord
100
AcDbDimStyleTableRecord
  2
ME10_DIM_10
 70
     0
 41
3.0
 42
0.5
 44
1.0
 73
     0
 74
     0
 77
     1
 78
     8
140
3.0
147
2.0
172
     1
173
     1
174
     1
175
     1
176
     2
177
     2
271
     2
178
     4
271
     2
340
525
  0
DIMSTYLE
105
53C
102
{ACAD_REACTORS
330
53D
102
}
330
A
100
AcDbSymbolTableRecord
100
AcDbDimStyleTableRecord
  2
ME10_DIM_11
 70
     0
 41
3.0
 42
0.5
 44
1.0
 73
     0
 74
     0
 77
     1
 78
     8
140
3.0
147
2.0
172
     1
173
     1
174
     1
175
     1
176
     2
177
     2
271
     2
178
     4
271
     2
340
525
  0
DIMSTYLE
105
547
102
{ACAD_REACTORS
330
548
102
}
330
A
100
AcDbSymbolTableRecord
100
AcDbDimStyleTableRecord
  2
ME10_DIM_12
 70
     0
 41
3.0
 42
0.5
 44
1.0
 73
     0
 74
     0
 77
     1
 78
     8
140
3.0
147
2.0
172
     1
173
     1
174
     1
175
     1
176
     2
177
     2
271
     2
178
     4
271
     2
340
525
  0
DIMSTYLE
105
552
102
{ACAD_REACTORS
330
553
102
}
330
A
100
AcDbSymbolTableRecord
100
AcDbDimStyleTableRecord
  2
ME10_DIM_13
 70
     0
 41
3.0
 42
0.5
 44
1.0
 73
     0
 74
     0
 77
     1
 78
     8
140
3.0
147
2.0
172
     1
173
     1
174
     1
175
     1
176
     2
177
     2
271
     2
178
     4
271
     2
340
525
  0
ENDTAB
  0
TABLE
  2
BLOCK_RECORD
  5
1
330
0
100
AcDbSymbolTable
 70
     7
  0
BLOCK_RECORD
  5
1F
330
1
100
AcDbSymbolTableRecord
100
AcDbBlockTableRecord
  2
*Model_Space
340
22
  0
BLOCK_RECORD
  5
1B
330
1
100
AcDbSymbolTableRecord
100
AcDbBlockTableRecord
  2
*Paper_Space
340
1E
  0
BLOCK_RECORD
  5
23
330
1
100
AcDbSymbolTableRecord
100
AcDbBlockTableRecord
  2
*Paper_Space0
340
26
  0
BLOCK_RECORD
  5
47
330
1
100
AcDbSymbolTableRecord
100
AcDbBlockTableRecord
  2
_formato_A4
340
0
102
{BLKREFS
331
4B
102
}
  0
BLOCK_RECORD
  5
4A
330
1
100
AcDbSymbolTableRecord
100
AcDbBlockTableRecord
  2
A4_oriz
340
0
102
{BLKREFS
331
4E
102
}
  0
BLOCK_RECORD
  5
528
330
1
100
AcDbSymbolTableRecord
100
AcDbBlockTableRecord
  2
*D3
340
0
  0
BLOCK_RECORD
  5
533
330
1
100
AcDbSymbolTableRecord
100
AcDbBlockTableRecord
  2
*D4
340
0
  0
BLOCK_RECORD
  5
53E
330
1
100
AcDbSymbolTableRecord
100
AcDbBlockTableRecord
  2
*D5
340
0
  0
BLOCK_RECORD
  5
549
330
1
100
AcDbSymbolTableRecord
100
AcDbBlockTableRecord
  2
*D6
340
0
  0
ENDTAB
  0
ENDSEC
  0
SECTION
  2
BLOCKS
  0
BLOCK
  5
20
330
1F
100
AcDbEntity
  8
0
100
AcDbBlockBegin
  2
*Model_Space
 70
     0
 10
0.0
 20
0.0
 30
0.0
  3
*Model_Space
  1

  0
ENDBLK
  5
21
330
1F
100
AcDbEntity
  8
0
100
AcDbBlockEnd
  0
BLOCK
  5
1C
330
1B
100
AcDbEntity
 67
     1
  8
0
100
AcDbBlockBegin
  2
*Paper_Space
 70
     0
 10
0.0
 20
0.0
 30
0.0
  3
*Paper_Space
  1

  0
ENDBLK
  5
1D
330
1B
100
AcDbEntity
 67
     1
  8
0
100
AcDbBlockEnd
  0
BLOCK
  5
24
330
23
100
AcDbEntity
  8
0
100
AcDbBlockBegin
  2
*Paper_Space0
 70
     0
 10
0.0
 20
0.0
 30
0.0
  3
*Paper_Space0
  1

  0
ENDBLK
  5
25
330
23
100
AcDbEntity
  8
0
100
AcDbBlockEnd
  0
BLOCK
  5
48
330
47
100
AcDbEntity
  8
0
100
AcDbBlockBegin
  2
_formato_A4
 70
     0
 10
-857.0458408438146
 20
25.32689400793408
 30
0.0
  3
_formato_A4
  1

  0
LINE
  5
4F
330
47
100
AcDbEntity
  8
1
  6
Continuous
 62
     7
100
AcDbLine
 10
-1046.045840843815
 20
35.32689400793394
 30
0.0
 11
-1016.045840843815
 21
35.32689400793394
 31
0.0
  0
LINE
  5
50
330
47
100
AcDbEntity
  8
1
  6
Continuous
 62
     7
100
AcDbLine
 10
-1046.045840843815
 20
40.32689400793397
 30
0.0
 11
-1016.045840843815
 21
40.32689400793397
 31
0.0
  0
LINE
  5
51
330
47
100
AcDbEntity
  8
1
  6
Continuous
 62
     7
100
AcDbLine
 10
-906.0458408438146
 20
45.32689400793407
 30
0.0
 11
-906.0458408438146
 21
30.32689400793408
 31
0.0
  0
LINE
  5
52
330
47
100
AcDbEntity
  8
1
  6
Continuous
 62
     7
100
AcDbLine
 10
-888.6932394663288
 20
45.32689400793407
 30
0.0
 11
-888.6932394663288
 21
30.32689400793408
 31
0.0
  0
LINE
  5
53
330
47
100
AcDbEntity
  8
1
  6
Continuous
 62
     7
100
AcDbLine
 10
-1016.045840843815
 20
45.32689400793407
 30
0.0
 11
-1016.045840843815
 21
30.32689400793408
 31
0.0
  0
LINE
  5
54
330
47
100
AcDbEntity
  8
1
  6
Continuous
 62
     7
100
AcDbLine
 10
-1005.545840843815
 20
235.3268940079343
 30
0.0
 11
-1005.545840843815
 21
220.3268940079343
 31
0.0
  0
LINE
  5
55
330
47
100
AcDbEntity
  8
1
  6
Continuous
 62
     7
100
AcDbLine
 10
-1154.045840843815
 20
25.32689400793408
 30
0.0
 11
-857.0458408438146
 21
25.32689400793408
 31
0.0
  0
LINE
  5
56
330
47
100
AcDbEntity
  8
1
  6
Continuous
 62
     7
100
AcDbLine
 10
-1154.045840843815
 20
235.3268940079343
 30
0.0
 11
-1154.045840843815
 21
25.32689400793408
 31
0.0
  0
LINE
  5
57
330
47
100
AcDbEntity
  8
1
  6
Continuous
 62
     7
100
AcDbLine
 10
-857.0458408438146
 20
235.3268940079343
 30
0.0
 11
-1154.045840843815
 21
235.3268940079343
 31
0.0
  0
LINE
  5
58
330
47
100
AcDbEntity
  8
1
  6
Continuous
 62
     7
100
AcDbLine
 10
-857.0458408438146
 20
25.32689400793408
 30
0.0
 11
-857.0458408438146
 21
235.3268940079343
 31
0.0
  0
LINE
  5
59
330
47
100
AcDbEntity
  8
1
  6
Continuous
 62
     7
100
AcDbLine
 10
-1149.045840843815
 20
30.32689400793408
 30
0.0
 11
-862.0458408438146
 21
30.32689400793408
 31
0.0
  0
LINE
  5
5A
330
47
100
AcDbEntity
  8
1
  6
Continuous
 62
     7
100
AcDbLine
 10
-862.0458408438146
 20
30.32689400793408
 30
0.0
 11
-862.0458408438146
 21
214.3268940079342
 31
0.0
  0
LINE
  5
5B
330
47
100
AcDbEntity
  8
1
  6
Continuous
 62
     7
100
AcDbLine
 10
-862.0458408438146
 20
214.3268940079342
 30
0.0
 11
-1149.045840843815
 21
214.3268940079342
 31
0.0
  0
LINE
  5
5C
102
{ACAD_REACTORS
330
A9
102
}
330
47
100
AcDbEntity
  8
1
  6
Continuous
 62
     7
100
AcDbLine
 10
-873.0362068217387
 20
35.40439384776671
 30
0.0
 11
-873.0362068217387
 21
40.24939416810145
 31
0.0
  0
LINE
  5
5D
102
{ACAD_REACTORS
330
A6
102
}
330
47
100
AcDbEntity
  8
1
  6
Continuous
 62
     7
100
AcDbLine
 10
-874.3695401550717
 20
37.82689400793407
 30
0.0
 11
-874.3695401550717
 21
39.55894481550291
 31
0.0
  0
LINE
  5
5E
102
{ACAD_REACTORS
330
A6
102
}
330
47
100
AcDbEntity
  8
1
  6
Continuous
 62
     7
100
AcDbLine
 10
-874.3695401550717
 20
39.55894481550291
 30
0.0
 11
-875.2252025877747
 21
38.07689400793407
 31
0.0
  0
LINE
  5
5F
102
{ACAD_REACTORS
330
A6
102
}
330
47
100
AcDbEntity
  8
1
  6
Continuous
 62
     7
100
AcDbLine
 10
-875.5138777223697
 20
38.07689400793407
 30
0.0
 11
-876.3695401550717
 21
39.55894481550291
 31
0.0
  0
LINE
  5
60
102
{ACAD_REACTORS
330
A6
102
}
330
47
100
AcDbEntity
  8
1
  6
Continuous
 62
     7
100
AcDbLine
 10
-876.3695401550717
 20
39.55894481550291
 30
0.0
 11
-876.3695401550717
 21
37.82689400793407
 31
0.0
  0
LINE
  5
61
330
47
100
AcDbEntity
  8
1
  6
Continuous
 62
     7
100
AcDbLine
 10
-883.7859754302137
 20
37.97125827227541
 30
0.0
 11
-875.3695401550717
 21
42.82689400793407
 31
0.0
  0
LINE
  5
62
330
47
100
AcDbEntity
  8
1
  6
Continuous
 62
     7
100
AcDbLine
 10
-875.3695401550717
 20
42.82689400793407
 30
0.0
 11
-866.9531048799308
 21
37.97125827227541
 31
0.0
  0
LINE
  5
63
330
47
100
AcDbEntity
  8
1
  6
Continuous
 62
     7
100
AcDbLine
 10
-866.9531048799308
 20
37.68252974359263
 30
0.0
 11
-875.3695401550717
 21
32.82689400793407
 31
0.0
  0
LINE
  5
64
330
47
100
AcDbEntity
  8
1
  6
Continuous
 62
     7
100
AcDbLine
 10
-875.3695401550717
 20
32.82689400793407
 30
0.0
 11
-883.7859754302137
 21
37.68252974359263
 31
0.0
  0
LINE
  5
65
102
{ACAD_REACTORS
330
A6
102
}
330
47
100
AcDbEntity
  8
1
  6
Continuous
 62
     7
100
AcDbLine
 10
-877.0362068217387
 20
37.82689400793407
 30
0.0
 11
-877.0362068217387
 21
41.05811131996865
 31
0.0
  0
LINE
  5
66
102
{ACAD_REACTORS
330
A6
102
}
330
47
100
AcDbEntity
  8
1
  6
Continuous
 62
     7
100
AcDbLine
 10
-876.5417731381158
 20
41.19059442620637
 30
0.0
 11
-875.3695401550717
 21
39.16022734126734
 31
0.0
  0
LINE
  5
67
102
{ACAD_REACTORS
330
A6
102
}
330
47
100
AcDbEntity
  8
1
  6
Continuous
 62
     7
100
AcDbLine
 10
-877.0362068217387
 20
37.82689400793407
 30
0.0
 11
-877.0362068217387
 21
36.17447908056698
 31
0.0
  0
LINE
  5
68
102
{ACAD_REACTORS
330
A6
102
}
330
47
100
AcDbEntity
  8
1
  6
Continuous
 62
     7
100
AcDbLine
 10
-876.3695401550717
 20
36.17447908056698
 30
0.0
 11
-876.3695401550717
 21
37.82689400793407
 31
0.0
  0
LINE
  5
69
102
{ACAD_REACTORS
330
A6
102
}
330
47
100
AcDbEntity
  8
1
  6
Continuous
 62
     7
100
AcDbLine
 10
-874.3695401550717
 20
37.82689400793407
 30
0.0
 11
-874.3695401550717
 21
34.63516307853588
 31
0.0
  0
LINE
  5
6A
102
{ACAD_REACTORS
330
A6
102
}
330
47
100
AcDbEntity
  8
1
  6
Continuous
 62
     7
100
AcDbLine
 10
-873.7028734884057
 20
34.63516307853588
 30
0.0
 11
-873.7028734884057
 21
41.05811131996865
 31
0.0
  0
LINE
  5
6B
102
{ACAD_REACTORS
330
A6
102
}
330
47
100
AcDbEntity
  8
1
  6
Continuous
 62
     7
100
AcDbLine
 10
-874.1973071720288
 20
41.19059442620637
 30
0.0
 11
-875.3695401550717
 21
39.16022734126734
 31
0.0
  0
LINE
  5
6C
102
{ACAD_REACTORS
330
A7
102
}
330
47
100
AcDbEntity
  8
1
  6
Continuous
 62
     7
100
AcDbLine
 10
-878.3695401550717
 20
35.59691515596666
 30
0.0
 11
-878.3695401550717
 21
40.24939416810145
 31
0.0
  0
LINE
  5
6D
102
{ACAD_REACTORS
330
A7
102
}
330
47
100
AcDbEntity
  8
1
  6
Continuous
 62
     7
100
AcDbLine
 10
-877.7028734884057
 20
40.24939416810145
 30
0.0
 11
-877.7028734884057
 21
35.59691515596678
 31
0.0
  0
LINE
  5
6E
102
{ACAD_REACTORS
330
A7
102
}
330
47
100
AcDbEntity
  8
1
  6
Continuous
 62
     7
100
AcDbLine
 10
-877.7028734884057
 20
35.59691515596678
 30
0.0
 11
-875.5362993372416
 21
34.34696853029568
 31
0.0
  0
LINE
  5
6F
102
{ACAD_REACTORS
330
A7
102
}
330
47
100
AcDbEntity
  8
1
  6
Continuous
 62
     7
100
AcDbLine
 10
-875.8694476395688
 20
33.76951147292989
 30
0.0
 11
-878.0360217907316
 21
35.01945809860099
 31
0.0
  0
LINE
  5
70
102
{ACAD_REACTORS
330
A8
102
}
330
47
100
AcDbEntity
  8
1
  6
Continuous
 62
     7
100
AcDbLine
 10
-879.0362068217387
 20
39.48016339887074
 30
0.0
 11
-879.0362068217387
 21
36.36614592519737
 31
0.0
  0
LINE
  5
71
102
{ACAD_REACTORS
330
A8
102
}
330
47
100
AcDbEntity
  8
1
  6
Continuous
 62
     7
100
AcDbLine
 10
-879.0362068217387
 20
36.36614592519737
 30
0.0
 11
-879.0362068217387
 21
36.17362461699731
 31
0.0
  0
LINE
  5
72
102
{ACAD_REACTORS
330
A8
102
}
330
47
100
AcDbEntity
  8
1
  6
Continuous
 62
     7
100
AcDbLine
 10
-879.7028734884057
 20
36.17362461699731
 30
0.0
 11
-879.7028734884057
 21
39.48016339887074
 31
0.0
  0
LINE
  5
73
102
{ACAD_REACTORS
330
A9
102
}
330
47
100
AcDbEntity
  8
1
  6
Continuous
 62
     7
100
AcDbLine
 10
-872.5362993372416
 20
40.53812269678434
 30
0.0
 11
-871.2029660039088
 21
39.76889192755352
 31
0.0
  0
LINE
  5
74
102
{ACAD_REACTORS
330
A9
102
}
330
47
100
AcDbEntity
  8
1
  6
Continuous
 62
     7
100
AcDbLine
 10
-871.5361143062348
 20
39.19143487018785
 30
0.0
 11
-872.3695401550717
 21
39.67225747528602
 31
0.0
  0
LINE
  5
75
102
{ACAD_REACTORS
330
A9
102
}
330
47
100
AcDbEntity
  8
1
  6
Continuous
 62
     7
100
AcDbLine
 10
-872.3695401550717
 20
39.67225747528602
 30
0.0
 11
-872.3695401550717
 21
38.16022734126734
 31
0.0
  0
LINE
  5
76
102
{ACAD_REACTORS
330
A9
102
}
330
47
100
AcDbEntity
  8
1
  6
Continuous
 62
     7
100
AcDbLine
 10
-872.3695401550717
 20
38.16022734126734
 30
0.0
 11
-871.3695401550717
 21
38.16022734126734
 31
0.0
  0
LINE
  5
77
102
{ACAD_REACTORS
330
A9
102
}
330
47
100
AcDbEntity
  8
1
  6
Continuous
 62
     7
100
AcDbLine
 10
-871.3695401550717
 20
37.49356067460071
 30
0.0
 11
-872.3695401550717
 21
37.49356067460071
 31
0.0
  0
LINE
  5
78
102
{ACAD_REACTORS
330
A9
102
}
330
47
100
AcDbEntity
  8
1
  6
Continuous
 62
     7
100
AcDbLine
 10
-872.3695401550717
 20
37.49356067460071
 30
0.0
 11
-872.3695401550717
 21
35.98153054058203
 31
0.0
  0
LINE
  5
79
102
{ACAD_REACTORS
330
A9
102
}
330
47
100
AcDbEntity
  8
1
  6
Continuous
 62
     7
100
AcDbLine
 10
-872.3695401550717
 20
35.98153054058203
 30
0.0
 11
-871.5361143062348
 21
36.46235314568032
 31
0.0
  0
LINE
  5
7A
102
{ACAD_REACTORS
330
A9
102
}
330
47
100
AcDbEntity
  8
1
  6
Continuous
 62
     7
100
AcDbLine
 10
-871.2029660039088
 20
35.88489608831441
 30
0.0
 11
-872.5362993372416
 21
35.11566531908382
 31
0.0
  0
LINE
  5
7B
330
47
100
AcDbEntity
  8
1
  6
Continuous
 62
     7
100
AcDbLine
 10
-1046.045840843815
 20
50.32689400793407
 30
0.0
 11
-862.0458408438146
 21
50.32689400793407
 31
0.0
  0
LINE
  5
7C
330
47
100
AcDbEntity
  8
1
  6
Continuous
 62
     7
100
AcDbLine
 10
-1039.045840843815
 20
45.32689400793407
 30
0.0
 11
-1039.045840843815
 21
50.32689400793407
 31
0.0
  0
LINE
  5
7D
330
47
100
AcDbEntity
  8
1
  6
Continuous
 62
     7
100
AcDbLine
 10
-1021.045840843815
 20
45.32689400793407
 30
0.0
 11
-1021.045840843815
 21
50.32689400793407
 31
0.0
  0
LINE
  5
7E
330
47
100
AcDbEntity
  8
1
  6
Continuous
 62
     7
100
AcDbLine
 10
-1046.045840843815
 20
55.32689400793407
 30
0.0
 11
-862.0458408438146
 21
55.32689400793407
 31
0.0
  0
LINE
  5
7F
330
47
100
AcDbEntity
  8
1
  6
Continuous
 62
     7
100
AcDbLine
 10
-1039.045840843815
 20
50.32689400793407
 30
0.0
 11
-1039.045840843815
 21
55.32689400793407
 31
0.0
  0
LINE
  5
80
330
47
100
AcDbEntity
  8
1
  6
Continuous
 62
     7
100
AcDbLine
 10
-1021.045840843815
 20
50.32689400793407
 30
0.0
 11
-1021.045840843815
 21
55.32689400793407
 31
0.0
  0
LINE
  5
81
330
47
100
AcDbEntity
  8
1
  6
Continuous
 62
     7
100
AcDbLine
 10
-1046.045840843815
 20
60.32689400793407
 30
0.0
 11
-862.0458408438146
 21
60.32689400793407
 31
0.0
  0
LINE
  5
82
330
47
100
AcDbEntity
  8
1
  6
Continuous
 62
     7
100
AcDbLine
 10
-1039.045840843815
 20
55.32689400793407
 30
0.0
 11
-1039.045840843815
 21
60.32689400793407
 31
0.0
  0
LINE
  5
83
330
47
100
AcDbEntity
  8
1
  6
Continuous
 62
     7
100
AcDbLine
 10
-1021.045840843815
 20
55.32689400793407
 30
0.0
 11
-1021.045840843815
 21
60.32689400793407
 31
0.0
  0
LINE
  5
84
330
47
100
AcDbEntity
  8
1
  6
Continuous
 62
     7
100
AcDbLine
 10
-1046.045840843815
 20
65.32689400793407
 30
0.0
 11
-862.0458408438146
 21
65.32689400793407
 31
0.0
  0
LINE
  5
85
330
47
100
AcDbEntity
  8
1
  6
Continuous
 62
     7
100
AcDbLine
 10
-1039.045840843815
 20
60.32689400793407
 30
0.0
 11
-1039.045840843815
 21
65.32689400793407
 31
0.0
  0
LINE
  5
86
330
47
100
AcDbEntity
  8
1
  6
Continuous
 62
     7
100
AcDbLine
 10
-1021.045840843815
 20
60.32689400793407
 30
0.0
 11
-1021.045840843815
 21
65.32689400793407
 31
0.0
  0
LINE
  5
87
330
47
100
AcDbEntity
  8
1
  6
Continuous
 62
     7
100
AcDbLine
 10
-1149.045840843815
 20
214.3268940079342
 30
0.0
 11
-1149.045840843815
 21
30.32689400793408
 31
0.0
  0
LINE
  5
88
330
47
100
AcDbEntity
  8
1
  6
Continuous
 62
     7
100
AcDbLine
 10
-1046.045840843815
 20
45.32689400793407
 30
0.0
 11
-862.0458408438146
 21
45.32689400793407
 31
0.0
  0
LINE
  5
89
330
47
100
AcDbEntity
  8
1
  6
Continuous
 62
     7
100
AcDbLine
 10
-1046.045840843815
 20
30.32689400793397
 30
0.0
 11
-1046.045840843815
 21
65.32689400793407
 31
0.0
  0
ARC
  5
8A
102
{ACAD_REACTORS
330
A6
102
}
330
47
100
AcDbEntity
  8
1
  6
Continuous
 62
     7
100
AcDbCircle
 10
-876.7712406092637
 20
41.05811131996865
 30
0.0
 40
0.264966212475135
100
AcDbArc
 50
30.00000000003666
 51
180.0
  0
ARC
  5
8B
102
{ACAD_REACTORS
330
A6
102
}
330
47
100
AcDbEntity
  8
1
  6
Continuous
 62
     7
100
AcDbCircle
 10
-876.7028734884057
 20
36.17447908056698
 30
0.0
 40
0.3333333333330302
100
AcDbArc
 50
180.0
 51
0.0
  0
ARC
  5
8C
102
{ACAD_REACTORS
330
A6
102
}
330
47
100
AcDbEntity
  8
1
  6
Continuous
 62
     7
100
AcDbCircle
 10
-874.0362068217387
 20
34.63516307853588
 30
0.0
 40
0.3333333333330302
100
AcDbArc
 50
180.0
 51
0.0
  0
ARC
  5
8D
102
{ACAD_REACTORS
330
A6
102
}
330
47
100
AcDbEntity
  8
1
  6
Continuous
 62
     7
100
AcDbCircle
 10
-873.9678397008806
 20
41.05811131996865
 30
0.0
 40
0.2649662124749739
100
AcDbArc
 50
0.0
 51
149.9999999999879
  0
ARC
  5
8E
102
{ACAD_REACTORS
330
A7
102
}
330
47
100
AcDbEntity
  8
1
  6
Continuous
 62
     7
100
AcDbCircle
 10
-878.0362068217387
 20
40.24939416810145
 30
0.0
 40
0.3333333333330302
100
AcDbArc
 50
0.0
 51
180.0
  0
ARC
  5
8F
102
{ACAD_REACTORS
330
A7
102
}
330
47
100
AcDbEntity
  8
1
  6
Continuous
 62
     7
100
AcDbCircle
 10
-875.7028734884057
 20
34.05824000161279
 30
0.0
 40
0.3333333333333141
100
AcDbArc
 50
240.0183606311663
 51
60.01836063103087
  0
ARC
  5
90
102
{ACAD_REACTORS
330
A8
102
}
330
47
100
AcDbEntity
  8
1
  6
Continuous
 62
     7
100
AcDbCircle
 10
-879.3695401550717
 20
39.48016339887074
 30
0.0
 40
0.3333333333330302
100
AcDbArc
 50
0.0
 51
180.0
  0
ARC
  5
91
102
{ACAD_REACTORS
330
A8
102
}
330
47
100
AcDbEntity
  8
1
  6
Continuous
 62
     7
100
AcDbCircle
 10
-879.3695401550717
 20
36.17362461699731
 30
0.0
 40
0.3333333333339397
100
AcDbArc
 50
180.0
 51
0.0
  0
ARC
  5
92
102
{ACAD_REACTORS
330
A9
102
}
330
47
100
AcDbEntity
  8
1
  6
Continuous
 62
     7
100
AcDbCircle
 10
-871.3695401550717
 20
39.48016339887074
 30
0.0
 40
0.3333333333333079
100
AcDbArc
 50
240.0183606311657
 51
60.01836063119038
  0
ARC
  5
93
102
{ACAD_REACTORS
330
A9
102
}
330
47
100
AcDbEntity
  8
1
  6
Continuous
 62
     7
100
AcDbCircle
 10
-871.3695401550717
 20
37.82689400793407
 30
0.0
 40
0.3333333333333641
100
AcDbArc
 50
270.0
 51
90.0
  0
ARC
  5
94
102
{ACAD_REACTORS
330
A9
102
}
330
47
100
AcDbEntity
  8
1
  6
Continuous
 62
     7
100
AcDbCircle
 10
-871.3695401550717
 20
36.17362461699731
 30
0.0
 40
0.3333333333332005
100
AcDbArc
 50
299.9816393687998
 51
119.9816393688239
  0
ARC
  5
95
102
{ACAD_REACTORS
330
A6
102
}
330
47
100
AcDbEntity
  8
1
  6
Continuous
 62
     7
100
AcDbCircle
 10
-875.3695401550717
 20
38.16022734126734
 30
0.0
 40
0.1666666666671054
100
AcDbArc
 50
209.9999999998856
 51
329.999999999958
  0
ARC
  5
96
102
{ACAD_REACTORS
330
A7
102
}
330
47
100
AcDbEntity
  8
1
  6
Continuous
 62
     7
100
AcDbCircle
 10
-877.7028734884057
 20
35.59691515596678
 30
0.0
 40
0.6666666666660603
100
AcDbArc
 50
180.0000000000097
 51
240.0183606311829
  0
ARC
  5
97
330
47
100
AcDbEntity
  8
1
  6
Continuous
 62
     7
100
AcDbCircle
 10
-883.7026883546318
 20
37.82689400793407
 30
0.0
 40
0.1666666666667352
100
AcDbArc
 50
119.9816393689536
 51
240.0183606310635
  0
ARC
  5
98
330
47
100
AcDbEntity
  8
1
  6
Continuous
 62
     7
100
AcDbCircle
 10
-867.0363919555118
 20
37.82689400793407
 30
0.0
 40
0.1666666666663668
100
AcDbArc
 50
299.9816393686656
 51
60.01836063131725
  0
ARC
  5
99
102
{ACAD_REACTORS
330
A9
102
}
330
47
100
AcDbEntity
  8
1
  6
Continuous
 62
     7
100
AcDbCircle
 10
-872.7028734884057
 20
40.24939416810145
 30
0.0
 40
0.3333333333337624
100
AcDbArc
 50
60.01836063103026
 51
180.0
  0
ARC
  5
9A
102
{ACAD_REACTORS
330
A9
102
}
330
47
100
AcDbEntity
  8
1
  6
Continuous
 62
     7
100
AcDbCircle
 10
-872.7028734884057
 20
35.40439384776671
 30
0.0
 40
0.3333333333330302
100
AcDbArc
 50
180.0
 51
299.9816393689691
  0
MTEXT
  5
9C
330
47
100
AcDbEntity
  8
1
 62
     7
100
AcDbMText
 10
-1034.445840843815
 20
32.82689400793396
 30
0.0
 40
3.0
 41
0.0
 71
     4
 72
     1
  1
Pezzimenti
  7
CONVERTER_11
 73
     1
 44
1.32052821128451
  0
MTEXT
  5
9D
330
47
100
AcDbEntity
  8
1
 62
     7
100
AcDbMText
 10
-1045.045840843815
 20
32.82689400793396
 30
0.0
 40
3.0
 41
0.0
 71
     4
 72
     1
  1
Sign.
  7
CONVERTER_11
 73
     1
 44
1.32052821128451
  0
MTEXT
  5
9E
330
47
100
AcDbEntity
  8
1
 62
     7
100
AcDbMText
 10
-1034.445840843815
 20
37.82689400793396
 30
0.0
 40
3.0
 41
0.0
 71
     4
 72
     1
  1
20/06/14
  7
CONVERTER_11
 73
     1
 44
1.32052821128451
  0
MTEXT
  5
9F
330
47
100
AcDbEntity
  8
1
 62
     7
100
AcDbMText
 10
-1045.045840843815
 20
37.82689400793396
 30
0.0
 40
3.0
 41
0.0
 71
     4
 72
     1
  1
Date
  7
CONVERTER_11
 73
     1
 44
1.32052821128451
  0
MTEXT
  5
A1
330
47
100
AcDbEntity
  8
1
 62
     7
100
AcDbMText
 10
-1031.045840843815
 20
42.82689400793402
 30
0.0
 40
2.5
 41
0.0
 71
     5
 72
     1
  1
dimensions in mm
  7
CONVERTER_12
 73
     1
 44
0.60024009603842
  0
MTEXT
  5
A2
330
47
100
AcDbEntity
  8
1
 62
     7
100
AcDbMText
 10
-1002.545840843815
 20
219.3268940079343
 30
0.0
 40
4.0
 41
0.0
 71
     5
 72
     1
  1
Diritti riservati      All rights reserved
  7
CONVERTER_11
 73
     1
 44
1.32052821128451
  0
MTEXT
  5
A3
330
47
100
AcDbEntity
  8
1
 62
     7
100
AcDbMText
 10
-1014.769540155072
 20
37.82689400793407
 30
0.0
 40
4.5
 41
0.0
 71
     4
 72
     1
  1
MHVN 10 G25\PHood with levers, top entry M25 - LS TYPE
  7
CONVERTER_11
 73
     1
 44
0.90036014405762
  0
MTEXT
  5
A4
330
47
100
AcDbEntity
  8
1
 62
     7
100
AcDbMText
 10
-897.3695401550717
 20
41.58753342869006
 30
0.0
 40
3.0
 41
0.0
 71
     5
 72
     1
  1
Scale
  7
CONVERTER_11
 73
     1
 44
1.32052821128451
  0
MTEXT
  5
A5
330
47
100
AcDbEntity
  8
1
 62
     7
100
AcDbMText
 10
-897.3695401550717
 20
35.38753342869013
 30
0.0
 40
4.5
 41
0.0
 71
     5
 72
     1
  1
1:1
  7
CONVERTER_11
 73
     1
 44
1.32052821128451
  0
HATCH
  5
A6
330
47
100
AcDbEntity
  8
1
  6
Continuous
 62
     7
100
AcDbHatch
 10
0.0
 20
0.0
 30
0.0
210
0.0
220
0.0
230
1.0
  2
SOLID
 70
     1
 71
     1
 91
        1
 92
        1
 93
       16
 72
     2
 10
-876.7712406092637
 20
41.05811131996865
 40
0.264966212475135
 50
30.00000000003666
 51
180.0
 73
     1
 72
     1
 10
-877.0362068217387
 20
41.05811131996865
 11
-877.0362068217387
 21
37.82689400793407
 72
     1
 10
-877.0362068217387
 20
37.82689400793407
 11
-877.0362068217387
 21
36.17447908056698
 72
     2
 10
-876.7028734884057
 20
36.17447908056698
 40
0.3333333333330302
 50
180.0
 51
360.0
 73
     1
 72
     1
 10
-876.3695401550717
 20
36.17447908056698
 11
-876.3695401550717
 21
37.82689400793407
 72
     1
 10
-876.3695401550717
 20
37.82689400793407
 11
-876.3695401550717
 21
39.55894481550291
 72
     1
 10
-876.3695401550717
 20
39.55894481550291
 11
-875.5138777223697
 21
38.07689400793407
 72
     2
 10
-875.3695401550717
 20
38.16022734126734
 40
0.1666666666671054
 50
209.9999999998856
 51
329.999999999958
 73
     1
 72
     1
 10
-875.2252025877747
 20
38.07689400793407
 11
-874.3695401550717
 21
39.55894481550291
 72
     1
 10
-874.3695401550717
 20
39.55894481550291
 11
-874.3695401550717
 21
37.82689400793407
 72
     1
 10
-874.3695401550717
 20
37.82689400793407
 11
-874.3695401550717
 21
34.63516307853588
 72
     2
 10
-874.0362068217387
 20
34.63516307853588
 40
0.3333333333330302
 50
180.0
 51
360.0
 73
     1
 72
     1
 10
-873.7028734884057
 20
34.63516307853588
 11
-873.7028734884057
 21
41.05811131996865
 72
     2
 10
-873.9678397008806
 20
41.05811131996865
 40
0.2649662124749739
 50
0.0
 51
149.9999999999879
 73
     1
 72
     1
 10
-874.1973071720288
 20
41.19059442620637
 11
-875.3695401550717
 21
39.16022734126734
 72
     1
 10
-875.3695401550717
 20
39.16022734126734
 11
-876.5417731381158
 21
41.19059442620637
 97
       16
330
6B
330
8D
330
6A
330
8C
330
69
330
5D
330
5E
330
95
330
5F
330
60
330
68
330
8B
330
67
330
65
330
8A
330
66
 75
     0
 76
     1
 98
        1
 10
0.0
 20
0.0
  0
HATCH
  5
A7
330
47
100
AcDbEntity
  8
1
  6
Continuous
 62
     7
100
AcDbHatch
 10
0.0
 20
0.0
 30
0.0
210
0.0
220
0.0
230
1.0
  2
SOLID
 70
     1
 71
     1
 91
        1
 92
        1
 93
        7
 72
     1
 10
-877.7028734884057
 20
40.24939416810145
 11
-877.7028734884057
 21
35.59691515596678
 72
     1
 10
-877.7028734884057
 20
35.59691515596678
 11
-875.5362993372416
 21
34.34696853029568
 72
     2
 10
-875.7028734884057
 20
34.05824000161279
 40
0.3333333333333141
 50
299.9816393689691
 51
479.9816393688338
 73
     0
 72
     1
 10
-875.8694476395688
 20
33.76951147292989
 11
-878.0360217907316
 21
35.01945809860099
 72
     2
 10
-877.7028734884057
 20
35.59691515596678
 40
0.6666666666660603
 50
119.9816393688171
 51
179.9999999999902
 73
     0
 72
     1
 10
-878.3695401550717
 20
35.59691515596666
 11
-878.3695401550717
 21
40.24939416810145
 72
     2
 10
-878.0362068217387
 20
40.24939416810145
 40
0.3333333333330302
 50
180.0
 51
360.0
 73
     0
 97
        7
330
6D
330
6E
330
8F
330
6F
330
96
330
6C
330
8E
 75
     0
 76
     1
 98
        1
 10
0.0
 20
0.0
  0
HATCH
  5
A8
330
47
100
AcDbEntity
  8
1
  6
Continuous
 62
     7
100
AcDbHatch
 10
0.0
 20
0.0
 30
0.0
210
0.0
220
0.0
230
1.0
  2
SOLID
 70
     1
 71
     1
 91
        1
 92
        1
 93
        5
 72
     1
 10
-879.0362068217387
 20
39.48016339887074
 11
-879.0362068217387
 21
36.36614592519737
 72
     1
 10
-879.0362068217387
 20
36.36614592519737
 11
-879.0362068217387
 21
36.17362461699731
 72
     2
 10
-879.3695401550717
 20
36.17362461699731
 40
0.3333333333339397
 50
0.0
 51
180.0
 73
     0
 72
     1
 10
-879.7028734884057
 20
36.17362461699731
 11
-879.7028734884057
 21
39.48016339887074
 72
     2
 10
-879.3695401550717
 20
39.48016339887074
 40
0.3333333333330302
 50
180.0
 51
360.0
 73
     0
 97
        5
330
70
330
71
330
91
330
72
330
90
 75
     0
 76
     1
 98
        1
 10
0.0
 20
0.0
  0
HATCH
  5
A9
330
47
100
AcDbEntity
  8
1
  6
Continuous
 62
     7
100
AcDbHatch
 10
0.0
 20
0.0
 30
0.0
210
0.0
220
0.0
230
1.0
  2
SOLID
 70
     1
 71
     1
 91
        1
 92
        1
 93
       14
 72
     1
 10
-871.5361143062348
 20
39.19143487018785
 11
-872.3695401550717
 21
39.67225747528602
 72
     1
 10
-872.3695401550717
 20
39.67225747528602
 11
-872.3695401550717
 21
38.16022734126734
 72
     1
 10
-872.3695401550717
 20
38.16022734126734
 11
-871.3695401550717
 21
38.16022734126734
 72
     2
 10
-871.3695401550717
 20
37.82689400793407
 40
0.3333333333333641
 50
270.0
 51
450.0
 73
     0
 72
     1
 10
-871.3695401550717
 20
37.49356067460071
 11
-872.3695401550717
 21
37.49356067460071
 72
     1
 10
-872.3695401550717
 20
37.49356067460071
 11
-872.3695401550717
 21
35.98153054058203
 72
     1
 10
-872.3695401550717
 20
35.98153054058203
 11
-871.5361143062348
 21
36.46235314568032
 72
     2
 10
-871.3695401550717
 20
36.17362461699731
 40
0.3333333333332005
 50
240.0183606311761
 51
420.0183606312001
 73
     0
 72
     1
 10
-871.2029660039088
 20
35.88489608831441
 11
-872.5362993372416
 21
35.11566531908382
 72
     2
 10
-872.7028734884057
 20
35.40439384776671
 40
0.3333333333330302
 50
60.01836063103086
 51
180.0
 73
     0
 72
     1
 10
-873.0362068217387
 20
35.40439384776671
 11
-873.0362068217387
 21
40.24939416810145
 72
     2
 10
-872.7028734884057
 20
40.24939416810145
 40
0.3333333333337624
 50
180.0
 51
299.9816393689698
 73
     0
 72
     1
 10
-872.5362993372416
 20
40.53812269678434
 11
-871.2029660039088
 21
39.76889192755352
 72
     2
 10
-871.3695401550717
 20
39.48016339887074
 40
0.3333333333333079
 50
299.9816393688097
 51
479.9816393688344
 73
     0
 97
       14
330
73
330
99
330
5C
330
9A
330
7A
330
94
330
79
330
78
330
77
330
93
330
76
330
75
330
74
330
92
 75
     0
 76
     1
 98
        1
 10
0.0
 20
0.0
  0
ENDBLK
  5
49
330
47
100
AcDbEntity
  8
0
100
AcDbBlockEnd
  0
BLOCK
  5
4C
330
4A
100
AcDbEntity
  8
0
100
AcDbBlockBegin
  2
A4_oriz
 70
     0
 10
291.8551065422054
 20
-0.23452093780543
 30
0.0
  3
A4_oriz
  1

  0
INSERT
  5
4B
330
4A
100
AcDbEntity
  8
1
100
AcDbBlockReference
  2
_formato_A4
 10
291.8551065422055
 20
-0.23452093780543
 30
0.0
  0
ENDBLK
  5
4D
330
4A
100
AcDbEntity
  8
0
100
AcDbBlockEnd
  0
BLOCK
  5
52F
330
528
100
AcDbEntity
  8
0
100
AcDbBlockBegin
  2
*D3
 70
     1
 10
0.0
 20
0.0
 30
0.0
  3
*D3
  1

  0
LINE
  5
529
330
528
100
AcDbEntity
  8
1
  6
Continuous
 62
     2
100
AcDbLine
 10
159.597172589488
 20
96.09598268366064
 30
0.0
 11
159.597172589488
 21
159.5959826836634
 31
0.0
  0
LINE
  5
52A
330
528
100
AcDbEntity
  8
1
  6
Continuous
 62
     2
100
AcDbLine
 10
110.1427102484579
 20
159.5959826836634
 30
0.0
 11
160.597172589488
 21
159.5959826836634
 31
0.0
  0
LINE
  5
52B
330
528
100
AcDbEntity
  8
1
  6
Continuous
 62
     2
100
AcDbLine
 10
108.6432102484588
 20
96.09598268366064
 30
0.0
 11
160.597172589488
 21
96.09598268366064
 31
0.0
  0
SOLID
  5
52C
330
528
100
AcDbEntity
  8
1
 62
     2
100
AcDbTrace
 10
159.2022150967258
 20
99.09598268366064
 30
0.0
 11
159.9921300822502
 21
99.09598268366064
 31
0.0
 12
159.597172589488
 22
96.09598268366064
 32
0.0
 13
159.597172589488
 23
96.09598268366064
 33
0.0
  0
SOLID
  5
52D
330
528
100
AcDbEntity
  8
1
 62
     2
100
AcDbTrace
 10
159.9921300822502
 20
156.5959826836634
 30
0.0
 11
159.2022150967258
 21
156.5959826836634
 31
0.0
 12
159.597172589488
 22
159.5959826836634
 32
0.0
 13
159.597172589488
 23
159.5959826836634
 33
0.0
  0
MTEXT
  5
52E
330
528
100
AcDbEntity
  8
1
 62
     4
100
AcDbMText
 10
157.297172589488
 20
123.720982683662
 30
0.0
 40
3.0
 41
0.0
 71
     7
 72
     1
  1
63,5
  7
CONVERTER_13
 11
0.0
 21
1.0
 31
0.0
 73
     1
 44
0.60024009603842
  0
ENDBLK
  5
530
330
528
100
AcDbEntity
  8
0
100
AcDbBlockEnd
  0
BLOCK
  5
53A
330
533
100
AcDbEntity
  8
0
100
AcDbBlockBegin
  2
*D4
 70
     1
 10
0.0
 20
0.0
 30
0.0
  3
*D4
  1

  0
LINE
  5
534
330
533
100
AcDbEntity
  8
1
  6
Continuous
 62
     2
100
AcDbLine
 10
148.42843508482
 20
60.0118050693937
 30
0.0
 11
40.34321024845786
 21
60.0118050693937
 31
0.0
  0
LINE
  5
535
330
533
100
AcDbEntity
  8
1
  6
Continuous
 62
     2
100
AcDbLine
 10
148.42843508482
 20
103.0959826836635
 30
0.0
 11
148.42843508482
 21
59.0118050693937
 31
0.0
  0
LINE
  5
536
330
533
100
AcDbEntity
  8
1
  6
Continuous
 62
     2
100
AcDbLine
 10
40.34321024845787
 20
103.0959826836665
 30
0.0
 11
40.34321024845787
 21
59.0118050693937
 31
0.0
  0
SOLID
  5
537
330
533
100
AcDbEntity
  8
1
 62
     2
100
AcDbTrace
 10
145.42843508482
 20
59.61684757663151
 30
0.0
 11
145.42843508482
 21
60.40676256215589
 31
0.0
 12
148.42843508482
 22
60.0118050693937
 32
0.0
 13
148.42843508482
 23
60.0118050693937
 33
0.0
  0
SOLID
  5
538
330
533
100
AcDbEntity
  8
1
 62
     2
100
AcDbTrace
 10
43.34321024845786
 20
60.40676256215589
 30
0.0
 11
43.34321024845786
 21
59.61684757663151
 31
0.0
 12
40.34321024845786
 22
60.0118050693937
 32
0.0
 13
40.34321024845786
 23
60.0118050693937
 33
0.0
  0
MTEXT
  5
539
330
533
100
AcDbEntity
  8
1
 62
     4
100
AcDbMText
 10
89.36082266663892
 20
62.3118050693937
 30
0.0
 40
3.0
 41
0.0
 71
     7
 72
     1
  1
109,5
  7
CONVERTER_13
 11
0.9999999999970619
 21
2.424068405545306E-6
 31
0.0
 73
     1
 44
0.60024009603842
  0
ENDBLK
  5
53B
330
533
100
AcDbEntity
  8
0
100
AcDbBlockEnd
  0
BLOCK
  5
545
330
53E
100
AcDbEntity
  8
0
100
AcDbBlockBegin
  2
*D5
 70
     1
 10
0.0
 20
0.0
 30
0.0
  3
*D5
  1

  0
LINE
  5
53F
330
53E
100
AcDbEntity
  8
1
  6
Continuous
 62
     2
100
AcDbLine
 10
244.4432100335137
 20
60.0118050693937
 30
0.0
 11
186.4432100335137
 21
60.0118050693937
 31
0.0
  0
LINE
  5
540
330
53E
100
AcDbEntity
  8
1
  6
Continuous
 62
     2
100
AcDbLine
 10
244.4432100335137
 20
78.09598268367046
 30
0.0
 11
244.4432100335137
 21
59.0118050693937
 31
0.0
  0
LINE
  5
541
330
53E
100
AcDbEntity
  8
1
  6
Continuous
 62
     2
100
AcDbLine
 10
186.4432100335137
 20
78.09598268366386
 30
0.0
 11
186.4432100335137
 21
59.0118050693937
 31
0.0
  0
SOLID
  5
542
330
53E
100
AcDbEntity
  8
1
 62
     2
100
AcDbTrace
 10
241.4432100335137
 20
59.61684757663151
 30
0.0
 11
241.4432100335137
 21
60.40676256215589
 31
0.0
 12
244.4432100335137
 22
60.0118050693937
 32
0.0
 13
244.4432100335137
 23
60.0118050693937
 33
0.0
  0
SOLID
  5
543
330
53E
100
AcDbEntity
  8
1
 62
     2
100
AcDbTrace
 10
189.4432100335137
 20
60.40676256215589
 30
0.0
 11
189.4432100335137
 21
59.61684757663151
 31
0.0
 12
186.4432100335137
 22
60.0118050693937
 32
0.0
 13
186.4432100335137
 23
60.0118050693937
 33
0.0
  0
MTEXT
  5
544
330
53E
100
AcDbEntity
  8
1
 62
     4
100
AcDbMText
 10
213.1932100335137
 20
62.0118050693937
 30
0.0
 40
3.0
 41
0.0
 71
     7
 72
     1
  1
58
  7
CONVERTER_13
 11
0.9999999999970619
 21
2.424068405545306E-6
 31
0.0
 73
     1
 44
0.60024009603842
  0
ENDBLK
  5
546
330
53E
100
AcDbEntity
  8
0
100
AcDbBlockEnd
  0
BLOCK
  5
550
330
549
100
AcDbEntity
  8
0
100
AcDbBlockBegin
  2
*D6
 70
     1
 10
0.0
 20
0.0
 30
0.0
  3
*D6
  1

  0
LINE
  5
54A
330
549
100
AcDbEntity
  8
1
  6
Continuous
 62
     2
100
AcDbLine
 10
107.6427102484579
 20
173.215245754404
 30
0.0
 11
82.64271024845786
 21
173.215245754404
 31
0.0
  0
LINE
  5
54B
330
549
100
AcDbEntity
  8
1
  6
Continuous
 62
     2
100
AcDbLine
 10
107.6427102484579
 20
160.0959826836634
 30
0.0
 11
107.6427102484579
 21
174.215245754404
 31
0.0
  0
LINE
  5
54C
330
549
100
AcDbEntity
  8
1
  6
Continuous
 62
     2
100
AcDbLine
 10
82.64271024845786
 20
160.0959826836634
 30
0.0
 11
82.64271024845786
 21
174.215245754404
 31
0.0
  0
SOLID
  5
54D
330
549
100
AcDbEntity
  8
1
 62
     2
100
AcDbTrace
 10
104.6427102484579
 20
172.8202882616418
 30
0.0
 11
104.6427102484579
 21
173.6102032471662
 31
0.0
 12
107.6427102484579
 22
173.215245754404
 32
0.0
 13
107.6427102484579
 23
173.215245754404
 33
0.0
  0
SOLID
  5
54E
330
549
100
AcDbEntity
  8
1
 62
     2
100
AcDbTrace
 10
85.64271024845786
 20
173.6102032471662
 30
0.0
 11
85.64271024845786
 21
172.8202882616418
 31
0.0
 12
82.64271024845786
 22
173.215245754404
 32
0.0
 13
82.64271024845786
 23
173.215245754404
 33
0.0
  0
MTEXT
  5
54F
330
549
100
AcDbEntity
  8
1
 62
     4
100
AcDbMText
 10
91.24271024845788
 20
175.215245754404
 30
0.0
 40
3.0
 41
0.0
 71
     7
 72
     1
  1
M25
  7
CONVERTER_13
 11
0.9999999999970619
 21
2.424068405545306E-6
 31
0.0
 73
     1
 44
0.60024009603842
  0
ENDBLK
  5
551
330
549
100
AcDbEntity
  8
0
100
AcDbBlockEnd
  0
ENDSEC
  0
SECTION
  2
ENTITIES
  0
INSERT
  5
4E
330
1F
100
AcDbEntity
  8
0
100
AcDbBlockReference
  2
A4_oriz
 10
291.8551065422054
 20
-0.23452093780543
 30
0.0
  0
LINE
  5
AA
330
1F
100
AcDbEntity
  8
0
  6
Continuous
 62
     7
100
AcDbLine
 10
192.4412100335111
 20
101.1959826836608
 30
0.0
 11
193.8746895523099
 21
99.76250316486238
 31
0.0
  0
LINE
  5
AB
330
1F
100
AcDbEntity
  8
0
  6
Continuous
 62
     7
100
AcDbLine
 10
192.4412100335105
 20
105.9959826836608
 30
0.0
 11
193.874689552309
 21
107.4294622024594
 31
0.0
  0
LINE
  5
AC
330
1F
100
AcDbEntity
  8
0
  6
Continuous
 62
     7
100
AcDbLine
 10
192.4412100335111
 20
101.1959826836608
 30
0.0
 11
191.9432100335112
 21
101.1959826836607
 31
0.0
  0
LINE
  5
AD
330
1F
100
AcDbEntity
  8
0
  6
Continuous
 62
     7
100
AcDbLine
 10
191.94321003351
 20
111.0959826836607
 30
0.0
 11
191.94321003351
 21
109.6724975957297
 31
0.0
  0
LINE
  5
AE
330
1F
100
AcDbEntity
  8
0
  6
Continuous
 62
     7
100
AcDbLine
 10
192.4412100335111
 20
101.1959826836608
 30
0.0
 11
192.4412100335109
 21
103.5959826836608
 31
0.0
  0
LINE
  5
AF
330
1F
100
AcDbEntity
  8
0
  6
Continuous
 62
     7
100
AcDbLine
 10
192.4412100335109
 20
103.5959826836608
 30
0.0
 11
192.4412100335105
 21
105.9959826836608
 31
0.0
  0
LINE
  5
B0
330
1F
100
AcDbEntity
  8
0
  6
Continuous
 62
     7
100
AcDbLine
 10
191.9432100335104
 20
107.4959826836607
 30
0.0
 11
191.94321003351
 21
109.6724975957297
 31
0.0
  0
LINE
  5
B1
330
1F
100
AcDbEntity
  8
0
  6
Continuous
 62
     7
100
AcDbLine
 10
191.9432100335111
 20
101.5889103862663
 30
0.0
 11
191.9432100335104
 21
107.4959826836607
 31
0.0
  0
LINE
  5
B2
330
1F
100
AcDbEntity
  8
0
  6
Continuous
 62
     7
100
AcDbLine
 10
191.9432100335115
 20
97.66022040109226
 30
0.0
 11
191.9432100335112
 21
101.1959826836607
 31
0.0
  0
LINE
  5
B3
330
1F
100
AcDbEntity
  8
0
  6
Continuous
 62
     7
100
AcDbLine
 10
192.4412100335105
 20
105.9959826836608
 30
0.0
 11
191.9432100335105
 21
105.9959826836607
 31
0.0
  0
LINE
  5
B4
330
1F
100
AcDbEntity
  8
0
  6
Continuous
 62
     7
100
AcDbLine
 10
186.4432100335102
 20
109.6724975957292
 30
0.0
 11
186.4432100335117
 21
96.12444304362378
 31
0.0
  0
LINE
  5
B5
330
1F
100
AcDbEntity
  8
0
  6
Continuous
 62
     7
100
AcDbLine
 10
186.443210033512
 20
94.11141282863531
 30
0.0
 11
186.4432100335121
 21
92.59598268366398
 31
0.0
  0
LINE
  5
B6
330
1F
100
AcDbEntity
  8
0
  6
Continuous
 62
     7
100
AcDbLine
 10
186.4432100335119
 20
94.68788370813576
 30
0.0
 11
186.443210033512
 21
94.11141282863531
 31
0.0
  0
LINE
  5
B7
330
1F
100
AcDbEntity
  8
0
  6
Continuous
 62
     7
100
AcDbLine
 10
186.4432100335117
 20
96.09598268366011
 30
0.0
 11
186.4432100335119
 21
94.68788370813576
 31
0.0
  0
LINE
  5
B8
330
1F
100
AcDbEntity
  8
0
  6
Continuous
 62
     7
100
AcDbLine
 10
186.4432100335117
 20
96.11969965029647
 30
0.0
 11
186.4432100335117
 21
96.09598268366011
 31
0.0
  0
LINE
  5
B9
330
1F
100
AcDbEntity
  8
0
  6
Continuous
 62
     7
100
AcDbLine
 10
186.4432100335117
 20
96.12444304362378
 30
0.0
 11
186.4432100335117
 21
96.11969965029647
 31
0.0
  0
LINE
  5
BA
330
1F
100
AcDbEntity
  8
0
  6
Continuous
 62
     7
100
AcDbLine
 10
186.44321003351
 20
111.0959826836601
 30
0.0
 11
186.4432100335102
 21
109.6724975957292
 31
0.0
  0
LINE
  5
BB
330
1F
100
AcDbEntity
  8
0
  6
Continuous
 62
     7
100
AcDbLine
 10
191.94321003351
 20
111.0959826836607
 30
0.0
 11
186.44321003351
 21
111.0959826836601
 31
0.0
  0
LINE
  5
BC
330
1F
100
AcDbEntity
  8
0
  6
Continuous
 62
     7
100
AcDbLine
 10
186.4432100335121
 20
92.49598268366395
 30
0.0
 11
186.4432100335121
 21
92.57893103548275
 31
0.0
  0
LINE
  5
BD
330
1F
100
AcDbEntity
  8
0
  6
Continuous
 62
     7
100
AcDbLine
 10
186.4432100335121
 20
92.57893103548275
 30
0.0
 11
186.4432100335121
 21
92.59598268366398
 31
0.0
  0
LINE
  5
BE
330
1F
100
AcDbEntity
  8
0
  6
Continuous
 62
     7
100
AcDbLine
 10
186.4432100335121
 20
92.47917463045678
 30
0.0
 11
186.4432100335121
 21
92.49598268366395
 31
0.0
  0
LINE
  5
BF
330
1F
100
AcDbEntity
  8
0
  6
Continuous
 62
     7
100
AcDbLine
 10
186.4432100335129
 20
85.58212601717878
 30
0.0
 11
186.4432100335128
 21
86.14898585550736
 31
0.0
  0
LINE
  5
C0
330
1F
100
AcDbEntity
  8
0
  6
Continuous
 62
     7
100
AcDbLine
 10
186.4432100335128
 20
86.32768192653828
 30
0.0
 11
186.4432100335127
 21
87.26524376330241
 31
0.0
  0
LINE
  5
C1
330
1F
100
AcDbEntity
  8
0
  6
Continuous
 62
     7
100
AcDbLine
 10
186.443210033513
 20
84.39781025776284
 30
0.0
 11
186.443210033513
 21
84.88844268366034
 31
0.0
  0
LINE
  5
C2
330
1F
100
AcDbEntity
  8
0
  6
Continuous
 62
     7
100
AcDbLine
 10
186.4432100335129
 20
85.35168620674716
 30
0.0
 11
186.4432100335129
 21
85.35517615641749
 31
0.0
  0
LINE
  5
C3
330
1F
100
AcDbEntity
  8
0
  6
Continuous
 62
     7
100
AcDbLine
 10
186.443210033513
 20
84.88844268366034
 30
0.0
 11
186.443210033513
 21
84.89598268365859
 31
0.0
  0
LINE
  5
C4
330
1F
100
AcDbEntity
  8
0
  6
Continuous
 62
     7
100
AcDbLine
 10
186.443210033513
 20
84.89598268365859
 30
0.0
 11
186.4432100335129
 21
85.35168620674716
 31
0.0
  0
LINE
  5
C5
330
1F
100
AcDbEntity
  8
0
  6
Continuous
 62
     7
100
AcDbLine
 10
186.4432100335127
 20
87.28943595286233
 30
0.0
 11
186.4432100335127
 21
87.39598268365916
 31
0.0
  0
LINE
  5
C6
330
1F
100
AcDbEntity
  8
0
  6
Continuous
 62
     7
100
AcDbLine
 10
186.4432100335127
 20
87.39598268365916
 30
0.0
 11
186.4432100335127
 21
87.73982222520527
 31
0.0
  0
LINE
  5
C7
330
1F
100
AcDbEntity
  8
0
  6
Continuous
 62
     7
100
AcDbLine
 10
186.4432100335129
 20
85.35517615641749
 30
0.0
 11
186.4432100335129
 21
85.58212601717878
 31
0.0
  0
LINE
  5
C8
330
1F
100
AcDbEntity
  8
0
  6
Continuous
 62
     7
100
AcDbLine
 10
186.4432100335128
 20
86.14898585550736
 30
0.0
 11
186.4432100335128
 21
86.31722908021146
 31
0.0
  0
LINE
  5
C9
330
1F
100
AcDbEntity
  8
0
  6
Continuous
 62
     7
100
AcDbLine
 10
186.4432100335128
 20
86.31722908021146
 30
0.0
 11
186.4432100335128
 21
86.32768192653828
 31
0.0
  0
LINE
  5
CA
330
1F
100
AcDbEntity
  8
0
  6
Continuous
 62
     7
100
AcDbLine
 10
186.4432100335127
 20
87.73982222520527
 30
0.0
 11
186.4432100335126
 21
87.89455001890241
 31
0.0
  0
LINE
  5
CB
330
1F
100
AcDbEntity
  8
0
  6
Continuous
 62
     7
100
AcDbLine
 10
186.4432100335126
 20
87.89455001890241
 30
0.0
 11
186.4432100335126
 21
88.18076817823447
 31
0.0
  0
LINE
  5
CC
330
1F
100
AcDbEntity
  8
0
  6
Continuous
 62
     7
100
AcDbLine
 10
207.9284042628586
 20
88.18076817823686
 30
0.0
 11
207.9284042628587
 21
88.21822883757858
 31
0.0
  0
LINE
  5
CD
330
1F
100
AcDbEntity
  8
0
  6
Continuous
 62
     7
100
AcDbLine
 10
207.9284042628584
 20
89.84404686341406
 30
0.0
 11
207.9284042628585
 21
89.90561301094664
 31
0.0
  0
LINE
  5
CE
330
1F
100
AcDbEntity
  8
0
  6
Continuous
 62
     7
100
AcDbLine
 10
207.9284042628588
 20
86.31722908021396
 30
0.0
 11
207.9284042628589
 21
86.32768192654078
 31
0.0
  0
LINE
  5
CF
330
1F
100
AcDbEntity
  8
0
  6
Continuous
 62
     7
100
AcDbLine
 10
186.4432100335122
 20
91.77661583367677
 30
0.0
 11
186.4432100335122
 21
92.07986176708698
 31
0.0
  0
LINE
  5
D0
330
1F
100
AcDbEntity
  8
0
  6
Continuous
 62
     7
100
AcDbLine
 10
186.4432100335122
 20
92.07986176708698
 30
0.0
 11
186.4432100335122
 21
92.17383102916557
 31
0.0
  0
LINE
  5
D1
330
1F
100
AcDbEntity
  8
0
  6
Continuous
 62
     7
100
AcDbLine
 10
186.4432100335122
 20
91.25910164428905
 30
0.0
 11
186.4432100335122
 21
91.6883210743909
 31
0.0
  0
LINE
  5
D2
330
1F
100
AcDbEntity
  8
0
  6
Continuous
 62
     7
100
AcDbLine
 10
186.4432100335122
 20
91.6883210743909
 30
0.0
 11
186.4432100335122
 21
91.77661583367677
 31
0.0
  0
LINE
  5
D3
330
1F
100
AcDbEntity
  8
0
  6
Continuous
 62
     7
100
AcDbLine
 10
186.4432100335123
 20
90.63136128603509
 30
0.0
 11
186.4432100335123
 21
91.17819994485154
 31
0.0
  0
LINE
  5
D4
330
1F
100
AcDbEntity
  8
0
  6
Continuous
 62
     7
100
AcDbLine
 10
186.4432100335123
 20
91.17819994485154
 30
0.0
 11
186.4432100335122
 21
91.25910164428905
 31
0.0
  0
LINE
  5
D5
330
1F
100
AcDbEntity
  8
0
  6
Continuous
 62
     7
100
AcDbLine
 10
186.4432100335124
 20
90.55942730600117
 30
0.0
 11
186.4432100335123
 21
90.63136128603509
 31
0.0
  0
LINE
  5
D6
330
1F
100
AcDbEntity
  8
0
  6
Continuous
 62
     7
100
AcDbLine
 10
186.4432100335125
 20
89.0459826836647
 30
0.0
 11
186.4432100335125
 21
89.09598268366466
 31
0.0
  0
LINE
  5
D7
330
1F
100
AcDbEntity
  8
0
  6
Continuous
 62
     7
100
AcDbLine
 10
186.4432100335125
 20
89.09598268366466
 30
0.0
 11
186.4432100335124
 21
89.84404686341168
 31
0.0
  0
LINE
  5
D8
330
1F
100
AcDbEntity
  8
0
  6
Continuous
 62
     7
100
AcDbLine
 10
186.4432100335124
 20
89.84404686341168
 30
0.0
 11
186.4432100335124
 21
89.90561301094414
 31
0.0
  0
LINE
  5
D9
330
1F
100
AcDbEntity
  8
0
  6
Continuous
 62
     7
100
AcDbLine
 10
186.4432100335124
 20
89.90561301094414
 30
0.0
 11
186.4432100335124
 21
90.55942730600117
 31
0.0
  0
LINE
  5
DA
330
1F
100
AcDbEntity
  8
0
  6
Continuous
 62
     7
100
AcDbLine
 10
186.4432100335126
 20
88.3959826836579
 30
0.0
 11
186.4432100335125
 21
88.97513433967714
 31
0.0
  0
LINE
  5
DB
330
1F
100
AcDbEntity
  8
0
  6
Continuous
 62
     7
100
AcDbLine
 10
186.4432100335125
 20
88.97513433967714
 30
0.0
 11
186.4432100335125
 21
89.0459826836647
 31
0.0
  0
LINE
  5
DC
330
1F
100
AcDbEntity
  8
0
  6
Continuous
 62
     7
100
AcDbLine
 10
186.4432100335126
 20
88.21822883757608
 30
0.0
 11
186.4432100335126
 21
88.3959826836579
 31
0.0
  0
LINE
  5
DD
330
1F
100
AcDbEntity
  8
0
  6
Continuous
 62
     7
100
AcDbLine
 10
198.1100947727249
 20
89.04598268366595
 30
0.0
 11
198.016339869732
 21
89.00332769115846
 31
0.0
  0
LINE
  5
DE
330
1F
100
AcDbEntity
  8
0
  6
Continuous
 62
     7
100
AcDbLine
 10
198.1410898680511
 20
89.06008429879967
 30
0.0
 11
198.1100947727249
 21
89.04598268366595
 31
0.0
  0
LINE
  5
DF
330
1F
100
AcDbEntity
  8
0
  6
Continuous
 62
     7
100
AcDbLine
 10
207.9284042628587
 20
88.21822883757858
 30
0.0
 11
191.9432100335125
 21
88.21822883757665
 31
0.0
  0
LINE
  5
E0
330
1F
100
AcDbEntity
  8
0
  6
Continuous
 62
     7
100
AcDbLine
 10
207.9284042628585
 20
89.90561301094664
 30
0.0
 11
186.4432100335124
 21
89.90561301094414
 31
0.0
  0
LINE
  5
E1
330
1F
100
AcDbEntity
  8
0
  6
Continuous
 62
     7
100
AcDbLine
 10
186.4432100335128
 20
86.32768192653828
 30
0.0
 11
207.9284042628589
 21
86.32768192654078
 31
0.0
  0
LINE
  5
E2
330
1F
100
AcDbEntity
  8
0
  6
Continuous
 62
     7
100
AcDbLine
 10
207.928404262859
 20
85.35168620674966
 30
0.0
 11
207.9284042628589
 21
85.35517615641987
 31
0.0
  0
LINE
  5
E3
330
1F
100
AcDbEntity
  8
0
  6
Continuous
 62
     7
100
AcDbLine
 10
207.928404262859
 20
85.35168620674966
 30
0.0
 11
186.4432100335129
 21
85.35168620674716
 31
0.0
  0
LINE
  5
E4
330
1F
100
AcDbEntity
  8
0
  6
Continuous
 62
     7
100
AcDbLine
 10
191.9432100335125
 20
88.21822883757665
 30
0.0
 11
186.4432100335126
 21
88.21822883757608
 31
0.0
  0
LINE
  5
E5
330
1F
100
AcDbEntity
  8
0
  6
Continuous
 62
     7
100
AcDbLine
 10
186.4432100335126
 20
88.18076817823447
 30
0.0
 11
186.4432100335126
 21
88.21822883757608
 31
0.0
  0
LINE
  5
E6
330
1F
100
AcDbEntity
  8
0
  6
Continuous
 62
     7
100
AcDbLine
 10
186.4432100335121
 20
92.34520112872741
 30
0.0
 11
186.4432100335121
 21
92.44301588880074
 31
0.0
  0
LINE
  5
E7
330
1F
100
AcDbEntity
  8
0
  6
Continuous
 62
     7
100
AcDbLine
 10
186.4432100335122
 20
92.17383102916557
 30
0.0
 11
186.4432100335121
 21
92.34520112872741
 31
0.0
  0
LINE
  5
E8
330
1F
100
AcDbEntity
  8
0
  6
Continuous
 62
     7
100
AcDbLine
 10
186.4432100335121
 20
92.44301588880074
 30
0.0
 11
186.4432100335121
 21
92.47917463045678
 31
0.0
  0
LINE
  5
E9
330
1F
100
AcDbEntity
  8
0
  6
Continuous
 62
     7
100
AcDbLine
 10
186.4432100335131
 20
83.46376542247759
 30
0.0
 11
186.443210033513
 21
84.07796480153894
 31
0.0
  0
LINE
  5
EA
330
1F
100
AcDbEntity
  8
0
  6
Continuous
 62
     7
100
AcDbLine
 10
186.4432100335132
 20
82.59598268366136
 30
0.0
 11
186.4432100335131
 21
83.43286372304004
 31
0.0
  0
LINE
  5
EB
330
1F
100
AcDbEntity
  8
0
  6
Continuous
 62
     7
100
AcDbLine
 10
186.4432100335133
 20
82.57122177081993
 30
0.0
 11
186.4432100335132
 21
82.59598268366136
 31
0.0
  0
LINE
  5
EC
330
1F
100
AcDbEntity
  8
0
  6
Continuous
 62
     7
100
AcDbLine
 10
186.4432100335131
 20
83.43286372304004
 30
0.0
 11
186.4432100335131
 21
83.46376542247759
 31
0.0
  0
LINE
  5
ED
330
1F
100
AcDbEntity
  8
0
  6
Continuous
 62
     7
100
AcDbLine
 10
186.443210033513
 20
84.07796480153894
 30
0.0
 11
186.443210033513
 21
84.38044543999621
 31
0.0
  0
LINE
  5
EE
330
1F
100
AcDbEntity
  8
0
  6
Continuous
 62
     7
100
AcDbLine
 10
188.8820253229246
 20
83.43286372304038
 30
0.0
 11
207.9284042628593
 21
83.43286372304249
 31
0.0
  0
LINE
  5
EF
330
1F
100
AcDbEntity
  8
0
  6
Continuous
 62
     7
100
AcDbLine
 10
186.4432100335131
 20
83.43286372304004
 30
0.0
 11
188.8820253229246
 21
83.43286372304038
 31
0.0
  0
LINE
  5
F0
330
1F
100
AcDbEntity
  8
0
  6
Continuous
 62
     7
100
AcDbLine
 10
207.9284042628593
 20
83.43286372304249
 30
0.0
 11
207.9284042628591
 21
83.46376542247998
 31
0.0
  0
LINE
  5
F1
330
1F
100
AcDbEntity
  8
0
  6
Continuous
 62
     7
100
AcDbLine
 10
186.4432100335133
 20
82.09598268366489
 30
0.0
 11
186.4432100335133
 21
82.52738465614107
 31
0.0
  0
LINE
  5
F2
330
1F
100
AcDbEntity
  8
0
  6
Continuous
 62
     7
100
AcDbLine
 10
186.4432100335133
 20
81.73755164971641
 30
0.0
 11
186.4432100335133
 21
82.09598268366489
 31
0.0
  0
LINE
  5
F3
330
1F
100
AcDbEntity
  8
0
  6
Continuous
 62
     7
100
AcDbLine
 10
207.9284042628594
 20
81.6816323593718
 30
0.0
 11
207.9284042628593
 21
81.73755164971891
 31
0.0
  0
LINE
  5
F4
330
1F
100
AcDbEntity
  8
0
  6
Continuous
 62
     7
100
AcDbLine
 10
188.8533275032888
 20
81.68163235936964
 30
0.0
 11
207.9284042628594
 21
81.6816323593718
 31
0.0
  0
LINE
  5
F5
330
1F
100
AcDbEntity
  8
0
  6
Continuous
 62
     7
100
AcDbLine
 10
186.4432100335133
 20
81.68163235936942
 30
0.0
 11
188.8533275032888
 21
81.68163235936964
 31
0.0
  0
LINE
  5
F6
330
1F
100
AcDbEntity
  8
0
  6
Continuous
 62
     7
100
AcDbLine
 10
186.4432100335134
 20
80.9789814997884
 30
0.0
 11
186.4432100335133
 21
81.68163235936942
 31
0.0
  0
LINE
  5
F7
330
1F
100
AcDbEntity
  8
0
  6
Continuous
 62
     7
100
AcDbLine
 10
186.4432100335133
 20
81.68163235936942
 30
0.0
 11
186.4432100335133
 21
81.73755164971641
 31
0.0
  0
LINE
  5
F8
330
1F
100
AcDbEntity
  8
0
  6
Continuous
 62
     7
100
AcDbLine
 10
186.443210033513
 20
84.38044543999621
 30
0.0
 11
186.443210033513
 21
84.39781025776284
 31
0.0
  0
LINE
  5
F9
330
1F
100
AcDbEntity
  8
0
  6
Continuous
 62
     7
100
AcDbLine
 10
186.4432100335127
 20
87.26524376330241
 30
0.0
 11
186.4432100335127
 21
87.28943595286233
 31
0.0
  0
LINE
  5
FA
330
1F
100
AcDbEntity
  8
0
  6
Continuous
 62
     7
100
AcDbLine
 10
186.4432100335133
 20
82.57122177081993
 30
0.0
 11
186.4432100335133
 21
82.52738465614107
 31
0.0
  0
LINE
  5
FB
330
1F
100
AcDbEntity
  8
0
  6
Continuous
 62
     7
100
AcDbLine
 10
186.4432100335134
 20
80.9789814997884
 30
0.0
 11
186.4432100335134
 21
80.91206843915239
 31
0.0
  0
LINE
  5
FC
330
1F
100
AcDbEntity
  8
0
  6
Continuous
 62
     7
100
AcDbLine
 10
186.4432100335135
 20
80.31027602614347
 30
0.0
 11
186.4432100335134
 21
80.91206843915239
 31
0.0
  0
LINE
  5
FD
330
1F
100
AcDbEntity
  8
0
  6
Continuous
 62
     7
100
AcDbLine
 10
186.4432100335135
 20
80.29598268366357
 30
0.0
 11
186.4432100335135
 21
80.31027602614347
 31
0.0
  0
LINE
  5
FE
330
1F
100
AcDbEntity
  8
0
  6
Continuous
 62
     7
100
AcDbLine
 10
186.4432100335135
 20
80.23367158183157
 30
0.0
 11
186.4432100335135
 21
80.29598268366357
 31
0.0
  0
LINE
  5
FF
330
1F
100
AcDbEntity
  8
0
  6
Continuous
 62
     7
100
AcDbLine
 10
186.4432100335135
 20
79.74445082018497
 30
0.0
 11
186.4432100335135
 21
80.23367158183157
 31
0.0
  0
LINE
  5
100
330
1F
100
AcDbEntity
  8
0
  6
Continuous
 62
     7
100
AcDbLine
 10
186.4432100335135
 20
79.74445082018497
 30
0.0
 11
186.4432100335136
 21
79.65964601056925
 31
0.0
  0
LINE
  5
101
330
1F
100
AcDbEntity
  8
0
  6
Continuous
 62
     7
100
AcDbLine
 10
186.4432100335136
 20
79.29251902593029
 30
0.0
 11
186.4432100335136
 21
79.65964601056925
 31
0.0
  0
LINE
  5
102
330
1F
100
AcDbEntity
  8
0
  6
Continuous
 62
     7
100
AcDbLine
 10
186.4432100335136
 20
79.20116448016597
 30
0.0
 11
186.4432100335136
 21
79.29251902593029
 31
0.0
  0
LINE
  5
103
330
1F
100
AcDbEntity
  8
0
  6
Continuous
 62
     7
100
AcDbLine
 10
186.4432100335137
 20
78.96327698168972
 30
0.0
 11
186.4432100335136
 21
79.20116448016597
 31
0.0
  0
LINE
  5
104
330
1F
100
AcDbEntity
  8
0
  6
Continuous
 62
     7
100
AcDbLine
 10
186.4432100335137
 20
78.96327698168972
 30
0.0
 11
186.4432100335137
 21
78.86715081209587
 31
0.0
  0
LINE
  5
105
330
1F
100
AcDbEntity
  8
0
  6
Continuous
 62
     7
100
AcDbLine
 10
186.4432100335137
 20
78.69598268366389
 30
0.0
 11
186.4432100335137
 21
78.7631330093472
 31
0.0
  0
LINE
  5
106
330
1F
100
AcDbEntity
  8
0
  6
Continuous
 62
     7
100
AcDbLine
 10
186.4432100335137
 20
78.59598268366386
 30
0.0
 11
186.4432100335137
 21
78.66410620247296
 31
0.0
  0
LINE
  5
107
330
1F
100
AcDbEntity
  8
0
  6
Continuous
 62
     7
100
AcDbLine
 10
186.4432100335137
 20
78.66410620247296
 30
0.0
 11
186.4432100335137
 21
78.69598268366389
 31
0.0
  0
LINE
  5
108
330
1F
100
AcDbEntity
  8
0
  6
Continuous
 62
     7
100
AcDbLine
 10
191.9432100335137
 20
78.5959826836608
 30
0.0
 11
186.4432100335137
 21
78.59598268366386
 31
0.0
  0
LINE
  5
109
330
1F
100
AcDbEntity
  8
0
  6
Continuous
 62
     7
100
AcDbLine
 10
186.4432100335137
 20
78.7631330093472
 30
0.0
 11
186.4432100335137
 21
78.86715081209587
 31
0.0
  0
LINE
  5
10A
330
1F
100
AcDbEntity
  8
0
  6
Continuous
 62
     7
100
AcDbLine
 10
194.9432100335137
 20
78.59598268366409
 30
0.0
 11
191.9432100335137
 21
78.5959826836608
 31
0.0
  0
LINE
  5
10B
330
1F
100
AcDbEntity
  8
0
  6
Continuous
 62
     7
100
AcDbLine
 10
238.4432100335112
 20
101.195982683666
 30
0.0
 11
237.0011073521778
 21
99.75388000233238
 31
0.0
  0
LINE
  5
10C
330
1F
100
AcDbEntity
  8
0
  6
Continuous
 62
     7
100
AcDbLine
 10
238.4432100335106
 20
105.995982683666
 30
0.0
 11
237.0011073521769
 21
107.4380853649994
 31
0.0
  0
LINE
  5
10D
330
1F
100
AcDbEntity
  8
0
  6
Continuous
 62
     7
100
AcDbLine
 10
244.44321003351
 20
109.6724975957357
 30
0.0
 11
244.4432100335117
 21
96.12444304363038
 31
0.0
  0
LINE
  5
10E
330
1F
100
AcDbEntity
  8
0
  6
Continuous
 62
     7
100
AcDbLine
 10
237.0011073521778
 20
99.75388000233238
 30
0.0
 11
236.9977825523097
 21
101.0959826836659
 31
0.0
  0
LINE
  5
10F
330
1F
100
AcDbEntity
  8
0
  6
Continuous
 62
     7
100
AcDbLine
 10
238.4432100335112
 20
101.195982683666
 30
0.0
 11
238.9432100335112
 21
101.1959826836661
 31
0.0
  0
LINE
  5
110
330
1F
100
AcDbEntity
  8
0
  6
Continuous
 62
     7
100
AcDbLine
 10
238.4432100335106
 20
105.995982683666
 30
0.0
 11
238.9432100335105
 21
105.9959826836661
 31
0.0
  0
LINE
  5
111
330
1F
100
AcDbEntity
  8
0
  6
Continuous
 62
     7
100
AcDbLine
 10
238.4432100335108
 20
103.595982683666
 30
0.0
 11
238.4432100335112
 21
101.195982683666
 31
0.0
  0
LINE
  5
112
330
1F
100
AcDbEntity
  8
0
  6
Continuous
 62
     7
100
AcDbLine
 10
238.9432100335112
 20
101.1959826836661
 30
0.0
 11
238.9432100335115
 21
97.66022040109766
 31
0.0
  0
LINE
  5
113
330
1F
100
AcDbEntity
  8
0
  6
Continuous
 62
     7
100
AcDbLine
 10
238.9432100335105
 20
105.9959826836661
 30
0.0
 11
238.9432100335112
 21
101.5897326836661
 31
0.0
  0
LINE
  5
114
330
1F
100
AcDbEntity
  8
0
  6
Continuous
 62
     7
100
AcDbLine
 10
238.9432100335104
 20
107.4959826836661
 30
0.0
 11
238.9432100335105
 21
105.9959826836661
 31
0.0
  0
LINE
  5
115
330
1F
100
AcDbEntity
  8
0
  6
Continuous
 62
     7
100
AcDbLine
 10
238.94321003351
 20
109.6724975957351
 30
0.0
 11
238.9432100335104
 21
107.4959826836661
 31
0.0
  0
LINE
  5
116
330
1F
100
AcDbEntity
  8
0
  6
Continuous
 62
     7
100
AcDbLine
 10
238.94321003351
 20
111.0959826836661
 30
0.0
 11
238.94321003351
 21
109.6724975957351
 31
0.0
  0
LINE
  5
117
330
1F
100
AcDbEntity
  8
0
  6
Continuous
 62
     7
100
AcDbLine
 10
238.4432100335106
 20
105.995982683666
 30
0.0
 11
238.4432100335108
 21
103.595982683666
 31
0.0
  0
LINE
  5
118
330
1F
100
AcDbEntity
  8
0
  6
Continuous
 62
     7
100
AcDbLine
 10
244.443210033512
 20
94.1114128286419
 30
0.0
 11
244.4432100335121
 21
92.59598268367057
 31
0.0
  0
LINE
  5
119
330
1F
100
AcDbEntity
  8
0
  6
Continuous
 62
     7
100
AcDbLine
 10
244.4432100335117
 20
96.0959826836667
 30
0.0
 11
244.4432100335117
 21
94.68788370814235
 31
0.0
  0
LINE
  5
11A
330
1F
100
AcDbEntity
  8
0
  6
Continuous
 62
     7
100
AcDbLine
 10
244.4432100335117
 20
94.68788370814235
 30
0.0
 11
244.443210033512
 21
94.1114128286419
 31
0.0
  0
LINE
  5
11B
330
1F
100
AcDbEntity
  8
0
  6
Continuous
 62
     7
100
AcDbLine
 10
244.4432100335117
 20
96.11969965030306
 30
0.0
 11
244.4432100335117
 21
96.0959826836667
 31
0.0
  0
LINE
  5
11C
330
1F
100
AcDbEntity
  8
0
  6
Continuous
 62
     7
100
AcDbLine
 10
244.4432100335117
 20
96.12444304363038
 30
0.0
 11
244.4432100335117
 21
96.11969965030306
 31
0.0
  0
LINE
  5
11D
330
1F
100
AcDbEntity
  8
0
  6
Continuous
 62
     7
100
AcDbLine
 10
244.44321003351
 20
111.0959826836667
 30
0.0
 11
244.44321003351
 21
109.6724975957357
 31
0.0
  0
LINE
  5
11E
330
1F
100
AcDbEntity
  8
0
  6
Continuous
 62
     7
100
AcDbLine
 10
244.44321003351
 20
111.0959826836667
 30
0.0
 11
238.94321003351
 21
111.0959826836661
 31
0.0
  0
LINE
  5
11F
330
1F
100
AcDbEntity
  8
0
  6
Continuous
 62
     7
100
AcDbLine
 10
244.4432100335125
 20
89.0959826836716
 30
0.0
 11
244.4432100335124
 21
89.84404686341827
 31
0.0
  0
LINE
  5
120
330
1F
100
AcDbEntity
  8
0
  6
Continuous
 62
     7
100
AcDbLine
 10
244.4432100335125
 20
88.39598268366439
 30
0.0
 11
244.4432100335125
 21
88.97513433968385
 31
0.0
  0
LINE
  5
121
330
1F
100
AcDbEntity
  8
0
  6
Continuous
 62
     7
100
AcDbLine
 10
244.4432100335125
 20
87.73982222521187
 30
0.0
 11
244.4432100335125
 21
87.89455001890889
 31
0.0
  0
LINE
  5
122
330
1F
100
AcDbEntity
  8
0
  6
Continuous
 62
     7
100
AcDbLine
 10
244.4432100335125
 20
87.89455001890889
 30
0.0
 11
244.4432100335125
 21
88.18076817824107
 31
0.0
  0
LINE
  5
123
330
1F
100
AcDbEntity
  8
0
  6
Continuous
 62
     7
100
AcDbLine
 10
244.4432100335125
 20
88.21822883758267
 30
0.0
 11
244.4432100335125
 21
88.39598268366439
 31
0.0
  0
LINE
  5
124
330
1F
100
AcDbEntity
  8
0
  6
Continuous
 62
     7
100
AcDbLine
 10
244.4432100335125
 20
88.18076817824107
 30
0.0
 11
244.4432100335125
 21
88.21822883758267
 31
0.0
  0
LINE
  5
125
330
1F
100
AcDbEntity
  8
0
  6
Continuous
 62
     7
100
AcDbLine
 10
244.4432100335125
 20
88.97513433968385
 30
0.0
 11
244.4432100335125
 21
89.0459826836713
 31
0.0
  0
LINE
  5
126
330
1F
100
AcDbEntity
  8
0
  6
Continuous
 62
     7
100
AcDbLine
 10
244.4432100335125
 20
89.0459826836713
 30
0.0
 11
244.4432100335125
 21
89.0959826836716
 31
0.0
  0
LINE
  5
127
330
1F
100
AcDbEntity
  8
0
  6
Continuous
 62
     7
100
AcDbLine
 10
244.4432100335126
 20
87.39598268366575
 30
0.0
 11
244.4432100335125
 21
87.73982222521187
 31
0.0
  0
LINE
  5
128
330
1F
100
AcDbEntity
  8
0
  6
Continuous
 62
     7
100
AcDbLine
 10
244.4432100335122
 20
91.25910164429564
 30
0.0
 11
244.4432100335122
 21
91.68832107439749
 31
0.0
  0
LINE
  5
129
330
1F
100
AcDbEntity
  8
0
  6
Continuous
 62
     7
100
AcDbLine
 10
244.4432100335122
 20
91.77661583368348
 30
0.0
 11
244.4432100335121
 21
92.07986176709358
 31
0.0
  0
LINE
  5
12A
330
1F
100
AcDbEntity
  8
0
  6
Continuous
 62
     7
100
AcDbLine
 10
244.4432100335124
 20
90.63136128604168
 30
0.0
 11
244.4432100335122
 21
91.17819994485814
 31
0.0
  0
LINE
  5
12B
330
1F
100
AcDbEntity
  8
0
  6
Continuous
 62
     7
100
AcDbLine
 10
244.4432100335124
 20
89.90561301095079
 30
0.0
 11
244.4432100335124
 21
90.55942730600776
 31
0.0
  0
LINE
  5
12C
330
1F
100
AcDbEntity
  8
0
  6
Continuous
 62
     7
100
AcDbLine
 10
244.4432100335121
 20
92.47917463046338
 30
0.0
 11
244.4432100335121
 21
92.49598268367055
 31
0.0
  0
LINE
  5
12D
330
1F
100
AcDbEntity
  8
0
  6
Continuous
 62
     7
100
AcDbLine
 10
244.4432100335121
 20
92.44301588880734
 30
0.0
 11
244.4432100335121
 21
92.47917463046338
 31
0.0
  0
LINE
  5
12E
330
1F
100
AcDbEntity
  8
0
  6
Continuous
 62
     7
100
AcDbLine
 10
244.4432100335121
 20
92.17383102917216
 30
0.0
 11
244.4432100335121
 21
92.345201128734
 31
0.0
  0
LINE
  5
12F
330
1F
100
AcDbEntity
  8
0
  6
Continuous
 62
     7
100
AcDbLine
 10
244.4432100335121
 20
92.07986176709358
 30
0.0
 11
244.4432100335121
 21
92.17383102917216
 31
0.0
  0
LINE
  5
130
330
1F
100
AcDbEntity
  8
0
  6
Continuous
 62
     7
100
AcDbLine
 10
244.4432100335122
 20
91.17819994485814
 30
0.0
 11
244.4432100335122
 21
91.25910164429564
 31
0.0
  0
LINE
  5
131
330
1F
100
AcDbEntity
  8
0
  6
Continuous
 62
     7
100
AcDbLine
 10
244.4432100335124
 20
89.84404686341827
 30
0.0
 11
244.4432100335124
 21
89.90561301095079
 31
0.0
  0
LINE
  5
132
330
1F
100
AcDbEntity
  8
0
  6
Continuous
 62
     7
100
AcDbLine
 10
244.4432100335121
 20
92.49598268367055
 30
0.0
 11
244.4432100335121
 21
92.57893103548935
 31
0.0
  0
LINE
  5
133
330
1F
100
AcDbEntity
  8
0
  6
Continuous
 62
     7
100
AcDbLine
 10
244.4432100335124
 20
90.55942730600776
 30
0.0
 11
244.4432100335124
 21
90.63136128604168
 31
0.0
  0
LINE
  5
134
330
1F
100
AcDbEntity
  8
0
  6
Continuous
 62
     7
100
AcDbLine
 10
244.4432100335121
 20
92.59598268367057
 30
0.0
 11
244.4432100335121
 21
92.57893103548935
 31
0.0
  0
LINE
  5
135
330
1F
100
AcDbEntity
  8
0
  6
Continuous
 62
     7
100
AcDbLine
 10
244.4432100335121
 20
92.345201128734
 30
0.0
 11
244.4432100335121
 21
92.44301588880734
 31
0.0
  0
LINE
  5
136
330
1F
100
AcDbEntity
  8
0
  6
Continuous
 62
     7
100
AcDbLine
 10
244.4432100335122
 20
91.68832107439749
 30
0.0
 11
244.4432100335122
 21
91.77661583368348
 31
0.0
  0
LINE
  5
137
330
1F
100
AcDbEntity
  8
0
  6
Continuous
 62
     7
100
AcDbLine
 10
244.443210033513
 20
84.3804454400028
 30
0.0
 11
244.443210033513
 21
84.39781025776944
 31
0.0
  0
LINE
  5
138
330
1F
100
AcDbEntity
  8
0
  6
Continuous
 62
     7
100
AcDbLine
 10
244.443210033513
 20
84.07796480154553
 30
0.0
 11
244.443210033513
 21
84.3804454400028
 31
0.0
  0
LINE
  5
139
330
1F
100
AcDbEntity
  8
0
  6
Continuous
 62
     7
100
AcDbLine
 10
244.4432100335131
 20
83.46376542248419
 30
0.0
 11
244.443210033513
 21
84.07796480154553
 31
0.0
  0
LINE
  5
13A
330
1F
100
AcDbEntity
  8
0
  6
Continuous
 62
     7
100
AcDbLine
 10
244.4432100335131
 20
83.43286372304664
 30
0.0
 11
244.4432100335131
 21
83.46376542248419
 31
0.0
  0
LINE
  5
13B
330
1F
100
AcDbEntity
  8
0
  6
Continuous
 62
     7
100
AcDbLine
 10
244.4432100335132
 20
82.59598268366796
 30
0.0
 11
244.4432100335131
 21
83.43286372304664
 31
0.0
  0
LINE
  5
13C
330
1F
100
AcDbEntity
  8
0
  6
Continuous
 62
     7
100
AcDbLine
 10
244.4432100335133
 20
82.09598268367148
 30
0.0
 11
244.4432100335132
 21
82.52738465614766
 31
0.0
  0
LINE
  5
13D
330
1F
100
AcDbEntity
  8
0
  6
Continuous
 62
     7
100
AcDbLine
 10
244.4432100335132
 20
82.57122177082658
 30
0.0
 11
244.4432100335132
 21
82.52738465614766
 31
0.0
  0
LINE
  5
13E
330
1F
100
AcDbEntity
  8
0
  6
Continuous
 62
     7
100
AcDbLine
 10
244.4432100335132
 20
82.57122177082658
 30
0.0
 11
244.4432100335132
 21
82.59598268366796
 31
0.0
  0
LINE
  5
13F
330
1F
100
AcDbEntity
  8
0
  6
Continuous
 62
     7
100
AcDbLine
 10
244.4432100335126
 20
87.28943595286898
 30
0.0
 11
244.4432100335126
 21
87.39598268366575
 31
0.0
  0
LINE
  5
140
330
1F
100
AcDbEntity
  8
0
  6
Continuous
 62
     7
100
AcDbLine
 10
244.443210033513
 20
84.39781025776944
 30
0.0
 11
244.4432100335129
 21
84.88844268366694
 31
0.0
  0
LINE
  5
141
330
1F
100
AcDbEntity
  8
0
  6
Continuous
 62
     7
100
AcDbLine
 10
244.4432100335129
 20
84.88844268366694
 30
0.0
 11
244.4432100335129
 21
84.89598268366518
 31
0.0
  0
LINE
  5
142
330
1F
100
AcDbEntity
  8
0
  6
Continuous
 62
     7
100
AcDbLine
 10
244.4432100335129
 20
86.32768192654487
 30
0.0
 11
244.4432100335126
 21
87.265243763309
 31
0.0
  0
LINE
  5
143
330
1F
100
AcDbEntity
  8
0
  6
Continuous
 62
     7
100
AcDbLine
 10
244.4432100335129
 20
84.89598268366518
 30
0.0
 11
244.4432100335129
 21
85.35168620675375
 31
0.0
  0
LINE
  5
144
330
1F
100
AcDbEntity
  8
0
  6
Continuous
 62
     7
100
AcDbLine
 10
244.4432100335129
 20
85.35168620675375
 30
0.0
 11
244.4432100335129
 21
85.35517615642408
 31
0.0
  0
LINE
  5
145
330
1F
100
AcDbEntity
  8
0
  6
Continuous
 62
     7
100
AcDbLine
 10
244.4432100335129
 20
85.58212601718537
 30
0.0
 11
244.4432100335129
 21
86.14898585551401
 31
0.0
  0
LINE
  5
146
330
1F
100
AcDbEntity
  8
0
  6
Continuous
 62
     7
100
AcDbLine
 10
244.4432100335129
 20
85.35517615642408
 30
0.0
 11
244.4432100335129
 21
85.58212601718537
 31
0.0
  0
LINE
  5
147
330
1F
100
AcDbEntity
  8
0
  6
Continuous
 62
     7
100
AcDbLine
 10
244.4432100335129
 20
86.14898585551401
 30
0.0
 11
244.4432100335129
 21
86.31722908021806
 31
0.0
  0
LINE
  5
148
330
1F
100
AcDbEntity
  8
0
  6
Continuous
 62
     7
100
AcDbLine
 10
244.4432100335129
 20
86.31722908021806
 30
0.0
 11
244.4432100335129
 21
86.32768192654487
 31
0.0
  0
LINE
  5
149
330
1F
100
AcDbEntity
  8
0
  6
Continuous
 62
     7
100
AcDbLine
 10
244.4432100335133
 20
81.73755164972312
 30
0.0
 11
244.4432100335133
 21
82.09598268367148
 31
0.0
  0
LINE
  5
14A
330
1F
100
AcDbEntity
  8
0
  6
Continuous
 62
     7
100
AcDbLine
 10
244.4432100335133
 20
81.68163235937601
 30
0.0
 11
244.4432100335133
 21
81.73755164972312
 31
0.0
  0
LINE
  5
14B
330
1F
100
AcDbEntity
  8
0
  6
Continuous
 62
     7
100
AcDbLine
 10
244.4432100335126
 20
87.265243763309
 30
0.0
 11
244.4432100335126
 21
87.28943595286898
 31
0.0
  0
LINE
  5
14C
330
1F
100
AcDbEntity
  8
0
  6
Continuous
 62
     7
100
AcDbLine
 10
244.4432100335134
 20
80.978981499795
 30
0.0
 11
244.4432100335133
 21
81.68163235937601
 31
0.0
  0
LINE
  5
14D
330
1F
100
AcDbEntity
  8
0
  6
Continuous
 62
     7
100
AcDbLine
 10
244.4432100335134
 20
80.978981499795
 30
0.0
 11
244.4432100335134
 21
80.91206843915899
 31
0.0
  0
LINE
  5
14E
330
1F
100
AcDbEntity
  8
0
  6
Continuous
 62
     7
100
AcDbLine
 10
244.4432100335134
 20
80.23367158183817
 30
0.0
 11
244.4432100335134
 21
80.31027602615018
 31
0.0
  0
LINE
  5
14F
330
1F
100
AcDbEntity
  8
0
  6
Continuous
 62
     7
100
AcDbLine
 10
244.4432100335134
 20
80.31027602615018
 30
0.0
 11
244.4432100335134
 21
80.91206843915899
 31
0.0
  0
LINE
  5
150
330
1F
100
AcDbEntity
  8
0
  6
Continuous
 62
     7
100
AcDbLine
 10
244.4432100335134
 20
79.74445082019162
 30
0.0
 11
244.4432100335134
 21
80.23367158183817
 31
0.0
  0
LINE
  5
151
330
1F
100
AcDbEntity
  8
0
  6
Continuous
 62
     7
100
AcDbLine
 10
244.4432100335137
 20
79.20116448017257
 30
0.0
 11
244.4432100335137
 21
79.29251902593688
 31
0.0
  0
LINE
  5
152
330
1F
100
AcDbEntity
  8
0
  6
Continuous
 62
     7
100
AcDbLine
 10
244.4432100335137
 20
79.29251902593688
 30
0.0
 11
244.4432100335134
 21
79.65964601057584
 31
0.0
  0
LINE
  5
153
330
1F
100
AcDbEntity
  8
0
  6
Continuous
 62
     7
100
AcDbLine
 10
244.4432100335134
 20
79.74445082019162
 30
0.0
 11
244.4432100335134
 21
79.65964601057584
 31
0.0
  0
LINE
  5
154
330
1F
100
AcDbEntity
  8
0
  6
Continuous
 62
     7
100
AcDbLine
 10
244.4432100335137
 20
78.96327698169631
 30
0.0
 11
244.4432100335137
 21
79.20116448017257
 31
0.0
  0
LINE
  5
155
330
1F
100
AcDbEntity
  8
0
  6
Continuous
 62
     7
100
AcDbLine
 10
244.4432100335137
 20
78.7631330093538
 30
0.0
 11
244.4432100335137
 21
78.86715081210247
 31
0.0
  0
LINE
  5
156
330
1F
100
AcDbEntity
  8
0
  6
Continuous
 62
     7
100
AcDbLine
 10
244.4432100335137
 20
78.66410620247956
 30
0.0
 11
244.4432100335137
 21
78.69598268367048
 31
0.0
  0
LINE
  5
157
330
1F
100
AcDbEntity
  8
0
  6
Continuous
 62
     7
100
AcDbLine
 10
244.4432100335137
 20
78.69598268367048
 30
0.0
 11
244.4432100335137
 21
78.7631330093538
 31
0.0
  0
LINE
  5
158
330
1F
100
AcDbEntity
  8
0
  6
Continuous
 62
     7
100
AcDbLine
 10
244.4432100335137
 20
78.96327698169631
 30
0.0
 11
244.4432100335137
 21
78.86715081210247
 31
0.0
  0
LINE
  5
159
330
1F
100
AcDbEntity
  8
0
  6
Continuous
 62
     7
100
AcDbLine
 10
244.4432100335137
 20
78.59598268367046
 30
0.0
 11
244.4432100335137
 21
78.66410620247956
 31
0.0
  0
LINE
  5
15A
330
1F
100
AcDbEntity
  8
0
  6
Continuous
 62
     7
100
AcDbLine
 10
238.9432100335137
 20
78.59598268366909
 30
0.0
 11
235.9432100335137
 21
78.59598268366864
 31
0.0
  0
LINE
  5
15B
330
1F
100
AcDbEntity
  8
0
  6
Continuous
 62
     7
100
AcDbLine
 10
244.4432100335137
 20
78.59598268367046
 30
0.0
 11
238.9432100335137
 21
78.59598268366909
 31
0.0
  0
LINE
  5
15C
330
1F
100
AcDbEntity
  8
0
  6
Continuous
 62
     7
100
AcDbLine
 10
194.9432100335118
 20
95.48983280791134
 30
0.0
 11
235.9432100335117
 21
95.489832807916
 31
0.0
  0
LINE
  5
15D
330
1F
100
AcDbEntity
  8
0
  6
Continuous
 62
     7
100
AcDbLine
 10
244.4432100335121
 20
92.57893103548935
 30
0.0
 11
186.4432100335121
 21
92.57893103548275
 31
0.0
  0
LINE
  5
15E
330
1F
100
AcDbEntity
  8
0
  6
Continuous
 62
     7
100
AcDbLine
 10
222.9580158041671
 20
83.43286372304425
 30
0.0
 11
222.958015804167
 21
83.46376542248169
 31
0.0
  0
LINE
  5
15F
330
1F
100
AcDbEntity
  8
0
  6
Continuous
 62
     7
100
AcDbLine
 10
222.9580158041671
 20
83.43286372304425
 30
0.0
 11
244.4432100335131
 21
83.43286372304664
 31
0.0
  0
LINE
  5
160
330
1F
100
AcDbEntity
  8
0
  6
Continuous
 62
     7
100
AcDbLine
 10
222.9580158041673
 20
81.68163235937351
 30
0.0
 11
222.9580158041673
 21
81.73755164972061
 31
0.0
  0
LINE
  5
161
330
1F
100
AcDbEntity
  8
0
  6
Continuous
 62
     7
100
AcDbLine
 10
222.9580158041673
 20
81.68163235937351
 30
0.0
 11
244.4432100335133
 21
81.68163235937601
 31
0.0
  0
LINE
  5
162
330
1F
100
AcDbEntity
  8
0
  6
Continuous
 62
     7
100
AcDbLine
 10
244.4432100335125
 20
88.21822883758267
 30
0.0
 11
222.9580158041666
 21
88.21822883758028
 31
0.0
  0
LINE
  5
163
330
1F
100
AcDbEntity
  8
0
  6
Continuous
 62
     7
100
AcDbLine
 10
232.7763252943
 20
89.04598268366988
 30
0.0
 11
232.870080197293
 21
89.0033276911625
 31
0.0
  0
LINE
  5
164
330
1F
100
AcDbEntity
  8
0
  6
Continuous
 62
     7
100
AcDbLine
 10
232.7453301989739
 20
89.06008429880359
 30
0.0
 11
232.7763252943
 21
89.04598268366988
 31
0.0
  0
LINE
  5
165
330
1F
100
AcDbEntity
  8
0
  6
Continuous
 62
     7
100
AcDbLine
 10
222.9580158041665
 20
88.18076817823868
 30
0.0
 11
222.9580158041666
 21
88.21822883758028
 31
0.0
  0
LINE
  5
166
330
1F
100
AcDbEntity
  8
0
  6
Continuous
 62
     7
100
AcDbLine
 10
244.4432100335124
 20
89.90561301095079
 30
0.0
 11
222.9580158041664
 21
89.90561301094834
 31
0.0
  0
LINE
  5
167
330
1F
100
AcDbEntity
  8
0
  6
Continuous
 62
     7
100
AcDbLine
 10
222.9580158041663
 20
89.84404686341577
 30
0.0
 11
222.9580158041664
 21
89.90561301094834
 31
0.0
  0
LINE
  5
168
330
1F
100
AcDbEntity
  8
0
  6
Continuous
 62
     7
100
AcDbLine
 10
244.4432100335129
 20
85.35168620675375
 30
0.0
 11
222.9580158041669
 21
85.35168620675137
 31
0.0
  0
LINE
  5
169
330
1F
100
AcDbEntity
  8
0
  6
Continuous
 62
     7
100
AcDbLine
 10
222.9580158041669
 20
85.35168620675137
 30
0.0
 11
222.9580158041669
 21
85.35517615642158
 31
0.0
  0
LINE
  5
16A
330
1F
100
AcDbEntity
  8
0
  6
Continuous
 62
     7
100
AcDbLine
 10
222.9580158041669
 20
86.32768192654248
 30
0.0
 11
244.4432100335129
 21
86.32768192654487
 31
0.0
  0
LINE
  5
16B
330
1F
100
AcDbEntity
  8
0
  6
Continuous
 62
     7
100
AcDbLine
 10
215.4432100335129
 20
85.59598268366727
 30
0.0
 11
215.4432100335129
 21
84.98900980963276
 31
0.0
  0
LINE
  5
16C
330
1F
100
AcDbEntity
  8
0
  6
Continuous
 62
     7
100
AcDbLine
 10
215.4432100335129
 20
84.98900980963276
 30
0.0
 11
215.4432100335129
 21
84.78030824078468
 31
0.0
  0
LINE
  5
16D
330
1F
100
AcDbEntity
  8
0
  6
Continuous
 62
     7
100
AcDbLine
 10
222.9580158041667
 20
86.31722908021567
 30
0.0
 11
222.9580158041669
 21
86.32768192654248
 31
0.0
  0
LINE
  5
16E
330
1F
100
AcDbEntity
  8
0
  6
Continuous
 62
     7
100
AcDbLine
 10
244.4432100335121
 20
92.17383102917216
 30
0.0
 11
186.4432100335122
 21
92.17383102916557
 31
0.0
  0
LINE
  5
16F
330
1F
100
AcDbEntity
  8
0
  6
Continuous
 62
     7
100
AcDbLine
 10
186.4432100335122
 20
91.25910164428905
 30
0.0
 11
244.4432100335122
 21
91.25910164429564
 31
0.0
  0
LINE
  5
170
330
1F
100
AcDbEntity
  8
0
  6
Continuous
 62
     7
100
AcDbLine
 10
244.4432100335134
 20
80.23367158183817
 30
0.0
 11
186.4432100335135
 21
80.23367158183157
 31
0.0
  0
LINE
  5
171
330
1F
100
AcDbEntity
  8
0
  6
Continuous
 62
     7
100
AcDbLine
 10
244.4432100335137
 20
79.20116448017257
 30
0.0
 11
186.4432100335136
 21
79.20116448016597
 31
0.0
  0
LINE
  5
172
330
1F
100
AcDbEntity
  8
0
  6
Continuous
 62
     7
100
AcDbLine
 10
244.4432100335137
 20
78.66410620247956
 30
0.0
 11
186.4432100335137
 21
78.66410620247296
 31
0.0
  0
LINE
  5
173
330
1F
100
AcDbEntity
  8
0
  6
Continuous
 62
     7
100
AcDbLine
 10
235.9432100335137
 20
78.59598268366864
 30
0.0
 11
194.9432100335137
 21
78.59598268366409
 31
0.0
  0
LINE
  5
174
330
1F
100
AcDbEntity
  8
0
  6
Continuous
 62
     7
100
AcDbLine
 10
230.9977825523104
 20
96.09598268366517
 30
0.0
 11
199.9977825523103
 21
96.09598268366159
 31
0.0
  0
LINE
  5
175
330
1F
100
AcDbEntity
  8
0
  6
Continuous
 62
     7
100
AcDbLine
 10
230.9977825523096
 20
101.0959826836652
 30
0.0
 11
199.9977825523096
 21
101.0959826836616
 31
0.0
  0
LINE
  5
176
330
1F
100
AcDbEntity
  8
0
  6
Continuous
 62
     7
100
AcDbLine
 10
230.9977825523084
 20
112.3459826836652
 30
0.0
 11
216.9977825523084
 21
112.3459826836636
 31
0.0
  0
LINE
  5
177
330
1F
100
AcDbEntity
  8
0
  6
Continuous
 62
     7
100
AcDbLine
 10
216.9977825523085
 20
111.6459826836636
 30
0.0
 11
230.9977825523085
 21
111.6459826836652
 31
0.0
  0
LINE
  5
178
330
1F
100
AcDbEntity
  8
0
  6
Continuous
 62
     7
100
AcDbLine
 10
216.9977825523083
 20
113.3459826836636
 30
0.0
 11
230.9977825523083
 21
113.3459826836652
 31
0.0
  0
LINE
  5
179
330
1F
100
AcDbEntity
  8
0
  6
Continuous
 62
     7
100
AcDbLine
 10
216.9977825523087
 20
110.8459826836636
 30
0.0
 11
216.9977825523085
 21
111.5459826836636
 31
0.0
  0
LINE
  5
17A
330
1F
100
AcDbEntity
  8
0
  6
Continuous
 62
     7
100
AcDbLine
 10
216.9977825523087
 20
110.8459826836636
 30
0.0
 11
230.9977825523087
 21
110.8459826836652
 31
0.0
  0
LINE
  5
17B
330
1F
100
AcDbEntity
  8
0
  6
Continuous
 62
     7
100
AcDbLine
 10
230.9977825523085
 20
111.5459826836652
 30
0.0
 11
216.9977825523085
 21
111.5459826836636
 31
0.0
  0
LINE
  5
17C
330
1F
100
AcDbEntity
  8
0
  6
Continuous
 62
     7
100
AcDbLine
 10
216.9977825523085
 20
111.5459826836636
 30
0.0
 11
216.9977825523085
 21
111.6459826836636
 31
0.0
  0
LINE
  5
17D
330
1F
100
AcDbEntity
  8
0
  6
Continuous
 62
     7
100
AcDbLine
 10
216.9977825523088
 20
109.1459826836636
 30
0.0
 11
216.9977825523088
 21
109.8459826836636
 31
0.0
  0
LINE
  5
17E
330
1F
100
AcDbEntity
  8
0
  6
Continuous
 62
     7
100
AcDbLine
 10
230.9977825523087
 20
109.8459826836652
 30
0.0
 11
216.9977825523088
 21
109.8459826836636
 31
0.0
  0
LINE
  5
17F
330
1F
100
AcDbEntity
  8
0
  6
Continuous
 62
     7
100
AcDbLine
 10
216.9977825523088
 20
109.0459826836636
 30
0.0
 11
216.9977825523088
 21
109.1459826836636
 31
0.0
  0
LINE
  5
180
330
1F
100
AcDbEntity
  8
0
  6
Continuous
 62
     7
100
AcDbLine
 10
216.9977825523088
 20
109.1459826836636
 30
0.0
 11
230.9977825523088
 21
109.1459826836652
 31
0.0
  0
LINE
  5
181
330
1F
100
AcDbEntity
  8
0
  6
Continuous
 62
     7
100
AcDbLine
 10
230.9977825523088
 20
109.0459826836652
 30
0.0
 11
216.9977825523088
 21
109.0459826836636
 31
0.0
  0
LINE
  5
182
330
1F
100
AcDbEntity
  8
0
  6
Continuous
 62
     7
100
AcDbLine
 10
216.9977825523085
 20
111.6459826836636
 30
0.0
 11
216.9977825523084
 21
112.3459826836636
 31
0.0
  0
LINE
  5
183
330
1F
100
AcDbEntity
  8
0
  6
Continuous
 62
     7
100
AcDbLine
 10
216.9977825523089
 20
108.3459826836636
 30
0.0
 11
230.9977825523089
 21
108.3459826836652
 31
0.0
  0
LINE
  5
184
330
1F
100
AcDbEntity
  8
0
  6
Continuous
 62
     7
100
AcDbLine
 10
216.9977825523089
 20
108.3459826836636
 30
0.0
 11
216.9977825523088
 21
109.0459826836636
 31
0.0
  0
LINE
  5
185
330
1F
100
AcDbEntity
  8
0
  6
Continuous
 62
     7
100
AcDbLine
 10
213.9977825523088
 20
109.8459826836632
 30
0.0
 11
213.9977825523088
 21
109.1459826836633
 31
0.0
  0
LINE
  5
186
330
1F
100
AcDbEntity
  8
0
  6
Continuous
 62
     7
100
AcDbLine
 10
213.9977825523088
 20
109.1459826836633
 30
0.0
 11
213.9977825523088
 21
109.0459826836632
 31
0.0
  0
LINE
  5
187
330
1F
100
AcDbEntity
  8
0
  6
Continuous
 62
     7
100
AcDbLine
 10
213.9977825523085
 20
111.5459826836632
 30
0.0
 11
213.9977825523087
 21
110.8459826836632
 31
0.0
  0
LINE
  5
188
330
1F
100
AcDbEntity
  8
0
  6
Continuous
 62
     7
100
AcDbLine
 10
213.9977825523088
 20
109.0459826836632
 30
0.0
 11
213.9977825523089
 21
108.3459826836632
 31
0.0
  0
LINE
  5
189
330
1F
100
AcDbEntity
  8
0
  6
Continuous
 62
     7
100
AcDbLine
 10
213.9977825523084
 20
112.3459826836632
 30
0.0
 11
213.9977825523085
 21
111.6459826836633
 31
0.0
  0
LINE
  5
18A
330
1F
100
AcDbEntity
  8
0
  6
Continuous
 62
     7
100
AcDbLine
 10
213.9977825523085
 20
111.6459826836633
 30
0.0
 11
213.9977825523085
 21
111.5459826836632
 31
0.0
  0
LINE
  5
18B
330
1F
100
AcDbEntity
  8
0
  6
Continuous
 62
     7
100
AcDbLine
 10
199.9977825523089
 20
108.3459826836616
 30
0.0
 11
213.9977825523089
 21
108.3459826836632
 31
0.0
  0
LINE
  5
18C
330
1F
100
AcDbEntity
  8
0
  6
Continuous
 62
     7
100
AcDbLine
 10
199.9977825523083
 20
113.3459826836616
 30
0.0
 11
213.9977825523083
 21
113.3459826836632
 31
0.0
  0
LINE
  5
18D
330
1F
100
AcDbEntity
  8
0
  6
Continuous
 62
     7
100
AcDbLine
 10
213.9977825523088
 20
109.1459826836633
 30
0.0
 11
199.9977825523088
 21
109.1459826836617
 31
0.0
  0
LINE
  5
18E
330
1F
100
AcDbEntity
  8
0
  6
Continuous
 62
     7
100
AcDbLine
 10
213.9977825523088
 20
109.8459826836632
 30
0.0
 11
199.9977825523088
 21
109.8459826836616
 31
0.0
  0
LINE
  5
18F
330
1F
100
AcDbEntity
  8
0
  6
Continuous
 62
     7
100
AcDbLine
 10
194.6977825519947
 20
109.0459826839752
 30
0.0
 11
193.997782552623
 21
108.3459826833468
 31
0.0
  0
LINE
  5
190
330
1F
100
AcDbEntity
  8
0
  6
Continuous
 62
     7
100
AcDbLine
 10
193.9977825523083
 20
113.345982683661
 30
0.0
 11
199.9977825523083
 21
113.3459826836616
 31
0.0
  0
LINE
  5
191
330
1F
100
AcDbEntity
  8
0
  6
Continuous
 62
     7
100
AcDbLine
 10
213.9977825523083
 20
114.1459826836633
 30
0.0
 11
199.9977825523083
 21
114.1459826836617
 31
0.0
  0
LINE
  5
192
330
1F
100
AcDbEntity
  8
0
  6
Continuous
 62
     7
100
AcDbLine
 10
199.9977825523083
 20
114.0459826836616
 30
0.0
 11
213.9977825523083
 21
114.0459826836632
 31
0.0
  0
LINE
  5
193
330
1F
100
AcDbEntity
  8
0
  6
Continuous
 62
     7
100
AcDbLine
 10
199.9977825523083
 20
114.1459826836617
 30
0.0
 11
194.6977825519941
 21
114.1459826833469
 31
0.0
  0
LINE
  5
194
330
1F
100
AcDbEntity
  8
0
  6
Continuous
 62
     7
100
AcDbLine
 10
194.6977825519941
 20
114.0459826839752
 30
0.0
 11
199.9977825523083
 21
114.0459826836616
 31
0.0
  0
LINE
  5
195
330
1F
100
AcDbEntity
  8
0
  6
Continuous
 62
     7
100
AcDbLine
 10
199.9977825523088
 20
109.0459826836616
 30
0.0
 11
213.9977825523088
 21
109.0459826836632
 31
0.0
  0
LINE
  5
196
330
1F
100
AcDbEntity
  8
0
  6
Continuous
 62
     7
100
AcDbLine
 10
199.9977825523087
 20
110.8459826836616
 30
0.0
 11
213.9977825523087
 21
110.8459826836632
 31
0.0
  0
LINE
  5
197
330
1F
100
AcDbEntity
  8
0
  6
Continuous
 62
     7
100
AcDbLine
 10
199.9977825523096
 20
101.0959826836616
 30
0.0
 11
193.9977825523096
 21
101.095982683661
 31
0.0
  0
LINE
  5
198
330
1F
100
AcDbEntity
  8
0
  6
Continuous
 62
     7
100
AcDbLine
 10
229.9977825523031
 20
159.5959826836651
 30
0.0
 11
200.9977825523031
 21
159.5959826836618
 31
0.0
  0
LINE
  5
199
330
1F
100
AcDbEntity
  8
0
  6
Continuous
 62
     7
100
AcDbLine
 10
229.9977825523046
 20
146.095982683665
 30
0.0
 11
200.9977825523046
 21
146.0959826836617
 31
0.0
  0
LINE
  5
19A
330
1F
100
AcDbEntity
  8
0
  6
Continuous
 62
     7
100
AcDbLine
 10
213.9977825523085
 20
111.6459826836633
 30
0.0
 11
199.9977825523085
 21
111.6459826836617
 31
0.0
  0
LINE
  5
19B
330
1F
100
AcDbEntity
  8
0
  6
Continuous
 62
     7
100
AcDbLine
 10
213.9977825523084
 20
112.3459826836632
 30
0.0
 11
199.9977825523084
 21
112.3459826836616
 31
0.0
  0
LINE
  5
19C
330
1F
100
AcDbEntity
  8
0
  6
Continuous
 62
     7
100
AcDbLine
 10
230.9977825523046
 20
146.0959826836651
 30
0.0
 11
229.9977825523046
 21
146.095982683665
 31
0.0
  0
LINE
  5
19D
330
1F
100
AcDbEntity
  8
0
  6
Continuous
 62
     7
100
AcDbLine
 10
200.9977825523046
 20
146.0959826836617
 30
0.0
 11
199.9977825523046
 21
146.0959826836616
 31
0.0
  0
LINE
  5
19E
330
1F
100
AcDbEntity
  8
0
  6
Continuous
 62
     7
100
AcDbLine
 10
213.9977825523082
 20
114.8459826836632
 30
0.0
 11
199.9977825523082
 21
114.8459826836616
 31
0.0
  0
LINE
  5
19F
330
1F
100
AcDbEntity
  8
0
  6
Continuous
 62
     7
100
AcDbLine
 10
216.9977825523083
 20
113.3459826836636
 30
0.0
 11
216.9977825523083
 21
114.0459826836636
 31
0.0
  0
LINE
  5
1A0
330
1F
100
AcDbEntity
  8
0
  6
Continuous
 62
     7
100
AcDbLine
 10
213.9977825523082
 20
114.8459826836632
 30
0.0
 11
213.9977825523083
 21
114.1459826836633
 31
0.0
  0
LINE
  5
1A1
330
1F
100
AcDbEntity
  8
0
  6
Continuous
 62
     7
100
AcDbLine
 10
213.9977825523083
 20
114.1459826836633
 30
0.0
 11
213.9977825523083
 21
114.0459826836632
 31
0.0
  0
LINE
  5
1A2
330
1F
100
AcDbEntity
  8
0
  6
Continuous
 62
     7
100
AcDbLine
 10
216.9977825523083
 20
114.0459826836636
 30
0.0
 11
216.9977825523083
 21
114.1459826836636
 31
0.0
  0
LINE
  5
1A3
330
1F
100
AcDbEntity
  8
0
  6
Continuous
 62
     7
100
AcDbLine
 10
216.9977825523083
 20
114.1459826836636
 30
0.0
 11
216.9977825523082
 21
114.8459826836636
 31
0.0
  0
LINE
  5
1A4
330
1F
100
AcDbEntity
  8
0
  6
Continuous
 62
     7
100
AcDbLine
 10
213.9977825523083
 20
114.0459826836632
 30
0.0
 11
213.9977825523083
 21
113.3459826836632
 31
0.0
  0
LINE
  5
1A5
330
1F
100
AcDbEntity
  8
0
  6
Continuous
 62
     7
100
AcDbLine
 10
200.9977825523031
 20
159.5959826836618
 30
0.0
 11
200.9977825523046
 21
146.0959826836617
 31
0.0
  0
LINE
  5
1A6
330
1F
100
AcDbEntity
  8
0
  6
Continuous
 62
     7
100
AcDbLine
 10
236.9977825523097
 20
101.0959826836659
 30
0.0
 11
230.9977825523096
 21
101.0959826836652
 31
0.0
  0
LINE
  5
1A7
330
1F
100
AcDbEntity
  8
0
  6
Continuous
 62
     7
100
AcDbLine
 10
236.297782552623
 20
109.1459826833516
 30
0.0
 11
236.9977825519947
 21
109.84598268398
 31
0.0
  0
LINE
  5
1A8
330
1F
100
AcDbEntity
  8
0
  6
Continuous
 62
     7
100
AcDbLine
 10
236.9977825519943
 20
112.34598268398
 30
0.0
 11
230.9977825523084
 21
112.3459826836652
 31
0.0
  0
LINE
  5
1A9
330
1F
100
AcDbEntity
  8
0
  6
Continuous
 62
     7
100
AcDbLine
 10
230.9977825523089
 20
108.3459826836652
 30
0.0
 11
236.9977825523089
 21
108.3459826836659
 31
0.0
  0
LINE
  5
1AA
330
1F
100
AcDbEntity
  8
0
  6
Continuous
 62
     7
100
AcDbLine
 10
236.9977825519947
 20
109.84598268398
 30
0.0
 11
230.9977825523087
 21
109.8459826836652
 31
0.0
  0
LINE
  5
1AB
330
1F
100
AcDbEntity
  8
0
  6
Continuous
 62
     7
100
AcDbLine
 10
236.297782552623
 20
109.0459826839798
 30
0.0
 11
230.9977825523088
 21
109.0459826836652
 31
0.0
  0
LINE
  5
1AC
330
1F
100
AcDbEntity
  8
0
  6
Continuous
 62
     7
100
AcDbLine
 10
236.297782552623
 20
109.1459826833516
 30
0.0
 11
236.297782552623
 21
109.0459826839798
 31
0.0
  0
LINE
  5
1AD
330
1F
100
AcDbEntity
  8
0
  6
Continuous
 62
     7
100
AcDbLine
 10
230.9977825523087
 20
110.8459826836652
 30
0.0
 11
236.9977825523087
 21
110.8459826836659
 31
0.0
  0
LINE
  5
1AE
330
1F
100
AcDbEntity
  8
0
  6
Continuous
 62
     7
100
AcDbLine
 10
236.9987825523102
 20
96.09598268366591
 30
0.0
 11
230.9977825523104
 21
96.09598268366517
 31
0.0
  0
LINE
  5
1AF
330
1F
100
AcDbEntity
  8
0
  6
Continuous
 62
     7
100
AcDbLine
 10
236.9987825523102
 20
96.09598268366591
 30
0.0
 11
237.0011073521778
 21
99.75388000233238
 31
0.0
  0
LINE
  5
1B0
330
1F
100
AcDbEntity
  8
0
  6
Continuous
 62
     7
100
AcDbLine
 10
237.0011073521778
 20
99.75388000233238
 30
0.0
 11
236.9977825523097
 21
101.0959826836659
 31
0.0
  0
LINE
  5
1B1
330
1F
100
AcDbEntity
  8
0
  6
Continuous
 62
     7
100
AcDbLine
 10
230.9977825523081
 20
114.8459826836652
 30
0.0
 11
216.9977825523082
 21
114.8459826836636
 31
0.0
  0
LINE
  5
1B2
330
1F
100
AcDbEntity
  8
0
  6
Continuous
 62
     7
100
AcDbLine
 10
216.9977825523083
 20
114.1459826836636
 30
0.0
 11
230.9977825523082
 21
114.1459826836652
 31
0.0
  0
LINE
  5
1B3
330
1F
100
AcDbEntity
  8
0
  6
Continuous
 62
     7
100
AcDbLine
 10
236.2977825523082
 20
114.1459826836658
 30
0.0
 11
236.9977825523081
 21
114.8459826836659
 31
0.0
  0
LINE
  5
1B4
330
1F
100
AcDbEntity
  8
0
  6
Continuous
 62
     7
100
AcDbLine
 10
230.9977825523082
 20
114.0459826836652
 30
0.0
 11
216.9977825523083
 21
114.0459826836636
 31
0.0
  0
LINE
  5
1B5
330
1F
100
AcDbEntity
  8
0
  6
Continuous
 62
     7
100
AcDbLine
 10
236.2977825523082
 20
114.0459826836658
 30
0.0
 11
230.9977825523082
 21
114.0459826836652
 31
0.0
  0
LINE
  5
1B6
330
1F
100
AcDbEntity
  8
0
  6
Continuous
 62
     7
100
AcDbLine
 10
236.9977825523081
 20
114.8459826836659
 30
0.0
 11
230.9977825523081
 21
114.8459826836652
 31
0.0
  0
LINE
  5
1B7
330
1F
100
AcDbEntity
  8
0
  6
Continuous
 62
     7
100
AcDbLine
 10
230.9977825523085
 20
111.6459826836652
 30
0.0
 11
236.2977825526226
 21
111.6459826833516
 31
0.0
  0
LINE
  5
1B8
330
1F
100
AcDbEntity
  8
0
  6
Continuous
 62
     7
100
AcDbLine
 10
230.9977825523082
 20
114.1459826836652
 30
0.0
 11
236.2977825523082
 21
114.1459826836658
 31
0.0
  0
LINE
  5
1B9
330
1F
100
AcDbEntity
  8
0
  6
Continuous
 62
     7
100
AcDbLine
 10
230.9977825523088
 20
109.1459826836652
 30
0.0
 11
236.297782552623
 21
109.1459826833516
 31
0.0
  0
LINE
  5
1BA
330
1F
100
AcDbEntity
  8
0
  6
Continuous
 62
     7
100
AcDbLine
 10
236.2977825526226
 20
111.5459826839798
 30
0.0
 11
230.9977825523085
 21
111.5459826836652
 31
0.0
  0
LINE
  5
1BB
330
1F
100
AcDbEntity
  8
0
  6
Continuous
 62
     7
100
AcDbLine
 10
236.2977825526226
 20
111.6459826833516
 30
0.0
 11
236.2977825526226
 21
111.5459826839798
 31
0.0
  0
LINE
  5
1BC
330
1F
100
AcDbEntity
  8
0
  6
Continuous
 62
     7
100
AcDbLine
 10
230.9977825523083
 20
113.3459826836652
 30
0.0
 11
236.9977825523083
 21
113.3459826836659
 31
0.0
  0
LINE
  5
1BD
330
1F
100
AcDbEntity
  8
0
  6
Continuous
 62
     7
100
AcDbLine
 10
230.9977825523046
 20
146.0959826836651
 30
0.0
 11
233.9977825523004
 21
146.0959826836655
 31
0.0
  0
LINE
  5
1BE
330
1F
100
AcDbEntity
  8
0
  6
Continuous
 62
     7
100
AcDbLine
 10
194.6977825519944
 20
111.6459826833469
 30
0.0
 11
193.9977825523084
 21
112.345982683661
 31
0.0
  0
LINE
  5
1BF
330
1F
100
AcDbEntity
  8
0
  6
Continuous
 62
     7
100
AcDbLine
 10
194.6977825519945
 20
111.5459826839751
 30
0.0
 11
193.9977825523087
 21
110.845982683661
 31
0.0
  0
LINE
  5
1C0
330
1F
100
AcDbEntity
  8
0
  6
Continuous
 62
     7
100
AcDbLine
 10
193.997782552623
 20
108.3459826833468
 30
0.0
 11
199.9977825523089
 21
108.3459826836616
 31
0.0
  0
LINE
  5
1C1
330
1F
100
AcDbEntity
  8
0
  6
Continuous
 62
     7
100
AcDbLine
 10
193.9977825523087
 20
110.845982683661
 30
0.0
 11
199.9977825523087
 21
110.8459826836616
 31
0.0
  0
LINE
  5
1C2
330
1F
100
AcDbEntity
  8
0
  6
Continuous
 62
     7
100
AcDbLine
 10
194.6977825519947
 20
109.1459826833469
 30
0.0
 11
193.9977825526229
 21
109.8459826839751
 31
0.0
  0
LINE
  5
1C3
330
1F
100
AcDbEntity
  8
0
  6
Continuous
 62
     7
100
AcDbLine
 10
199.9977825523085
 20
111.6459826836617
 30
0.0
 11
194.6977825519944
 21
111.6459826833469
 31
0.0
  0
LINE
  5
1C4
330
1F
100
AcDbEntity
  8
0
  6
Continuous
 62
     7
100
AcDbLine
 10
194.6977825519945
 20
111.5459826839751
 30
0.0
 11
199.9977825523085
 21
111.5459826836616
 31
0.0
  0
LINE
  5
1C5
330
1F
100
AcDbEntity
  8
0
  6
Continuous
 62
     7
100
AcDbLine
 10
199.9977825523088
 20
109.1459826836617
 30
0.0
 11
194.6977825519947
 21
109.1459826833469
 31
0.0
  0
LINE
  5
1C6
330
1F
100
AcDbEntity
  8
0
  6
Continuous
 62
     7
100
AcDbLine
 10
194.6977825519945
 20
111.5459826839751
 30
0.0
 11
194.6977825519944
 21
111.6459826833469
 31
0.0
  0
LINE
  5
1C7
330
1F
100
AcDbEntity
  8
0
  6
Continuous
 62
     7
100
AcDbLine
 10
199.9977825523088
 20
109.8459826836616
 30
0.0
 11
193.9977825526229
 21
109.8459826839751
 31
0.0
  0
LINE
  5
1C8
330
1F
100
AcDbEntity
  8
0
  6
Continuous
 62
     7
100
AcDbLine
 10
193.9977825523087
 20
110.845982683661
 30
0.0
 11
193.9977825526229
 21
109.8459826839751
 31
0.0
  0
LINE
  5
1C9
330
1F
100
AcDbEntity
  8
0
  6
Continuous
 62
     7
100
AcDbLine
 10
194.6977825519947
 20
109.0459826839752
 30
0.0
 11
199.9977825523088
 21
109.0459826836616
 31
0.0
  0
LINE
  5
1CA
330
1F
100
AcDbEntity
  8
0
  6
Continuous
 62
     7
100
AcDbLine
 10
194.6977825519947
 20
109.0459826839752
 30
0.0
 11
194.6977825519947
 21
109.1459826833469
 31
0.0
  0
LINE
  5
1CB
330
1F
100
AcDbEntity
  8
0
  6
Continuous
 62
     7
100
AcDbLine
 10
193.9977825523083
 20
113.345982683661
 30
0.0
 11
193.9977825523084
 21
112.345982683661
 31
0.0
  0
LINE
  5
1CC
330
1F
100
AcDbEntity
  8
0
  6
Continuous
 62
     7
100
AcDbLine
 10
199.9977825523084
 20
112.3459826836616
 30
0.0
 11
193.9977825523084
 21
112.345982683661
 31
0.0
  0
LINE
  5
1CD
330
1F
100
AcDbEntity
  8
0
  6
Continuous
 62
     7
100
AcDbLine
 10
199.9977825523082
 20
114.8459826836616
 30
0.0
 11
193.9977825523082
 21
114.845982683661
 31
0.0
  0
LINE
  5
1CE
330
1F
100
AcDbEntity
  8
0
  6
Continuous
 62
     7
100
AcDbLine
 10
193.997782552305
 20
143.0959826836609
 30
0.0
 11
193.9977825523082
 21
114.845982683661
 31
0.0
  0
LINE
  5
1CF
330
1F
100
AcDbEntity
  8
0
  6
Continuous
 62
     7
100
AcDbLine
 10
194.6977825519941
 20
114.1459826833469
 30
0.0
 11
193.9977825523082
 21
114.845982683661
 31
0.0
  0
LINE
  5
1D0
330
1F
100
AcDbEntity
  8
0
  6
Continuous
 62
     7
100
AcDbLine
 10
194.6977825519941
 20
114.0459826839752
 30
0.0
 11
193.9977825523083
 21
113.345982683661
 31
0.0
  0
LINE
  5
1D1
330
1F
100
AcDbEntity
  8
0
  6
Continuous
 62
     7
100
AcDbLine
 10
194.6977825519941
 20
114.0459826839752
 30
0.0
 11
194.6977825519941
 21
114.1459826833469
 31
0.0
  0
LINE
  5
1D2
330
1F
100
AcDbEntity
  8
0
  6
Continuous
 62
     7
100
AcDbLine
 10
193.997782552623
 20
108.3459826833468
 30
0.0
 11
193.9977825525124
 21
107.5525552026628
 31
0.0
  0
LINE
  5
1D3
330
1F
100
AcDbEntity
  8
0
  6
Continuous
 62
     7
100
AcDbLine
 10
199.9977825523046
 20
146.0959826836616
 30
0.0
 11
196.9977825523046
 21
146.0959826836613
 31
0.0
  0
LINE
  5
1D4
330
1F
100
AcDbEntity
  8
0
  6
Continuous
 62
     7
100
AcDbLine
 10
199.9977825523103
 20
96.09598268366159
 30
0.0
 11
193.9967825523103
 21
96.09598268366096
 31
0.0
  0
LINE
  5
1D5
330
1F
100
AcDbEntity
  8
0
  6
Continuous
 62
     7
100
AcDbLine
 10
193.9977825523092
 20
106.095982683661
 30
0.0
 11
193.9977825523096
 21
101.095982683661
 31
0.0
  0
LINE
  5
1D6
330
1F
100
AcDbEntity
  8
0
  6
Continuous
 62
     7
100
AcDbLine
 10
199.9977825523085
 20
111.5459826836616
 30
0.0
 11
213.9977825523085
 21
111.5459826836632
 31
0.0
  0
LINE
  5
1D7
330
1F
100
AcDbEntity
  8
0
  6
Continuous
 62
     7
100
AcDbLine
 10
193.9967825523103
 20
96.09598268366096
 30
0.0
 11
193.9974912960573
 21
99.63970142111502
 31
0.0
  0
LINE
  5
1D8
330
1F
100
AcDbEntity
  8
0
  6
Continuous
 62
     7
100
AcDbLine
 10
229.9977825523031
 20
159.5959826836651
 30
0.0
 11
229.9977825523046
 21
146.095982683665
 31
0.0
  0
LINE
  5
1D9
330
1F
100
AcDbEntity
  8
0
  6
Continuous
 62
     7
100
AcDbLine
 10
236.2977825523082
 20
114.0459826836658
 30
0.0
 11
236.9977825523083
 21
113.3459826836659
 31
0.0
  0
LINE
  5
1DA
330
1F
100
AcDbEntity
  8
0
  6
Continuous
 62
     7
100
AcDbLine
 10
236.2977825526226
 20
111.6459826833516
 30
0.0
 11
236.9977825519943
 21
112.34598268398
 31
0.0
  0
LINE
  5
1DB
330
1F
100
AcDbEntity
  8
0
  6
Continuous
 62
     7
100
AcDbLine
 10
236.2977825526226
 20
111.5459826839798
 30
0.0
 11
236.9977825523087
 21
110.8459826836659
 31
0.0
  0
LINE
  5
1DC
330
1F
100
AcDbEntity
  8
0
  6
Continuous
 62
     7
100
AcDbLine
 10
236.2977825523082
 20
114.1459826836658
 30
0.0
 11
236.2977825523082
 21
114.0459826836658
 31
0.0
  0
LINE
  5
1DD
330
1F
100
AcDbEntity
  8
0
  6
Continuous
 62
     7
100
AcDbLine
 10
236.9977825523097
 20
101.0959826836659
 30
0.0
 11
236.9977825523089
 21
108.3459826836659
 31
0.0
  0
LINE
  5
1DE
330
1F
100
AcDbEntity
  8
0
  6
Continuous
 62
     7
100
AcDbLine
 10
236.9977825519947
 20
109.84598268398
 30
0.0
 11
236.9977825523087
 21
110.8459826836659
 31
0.0
  0
LINE
  5
1DF
330
1F
100
AcDbEntity
  8
0
  6
Continuous
 62
     7
100
AcDbLine
 10
236.297782552623
 20
109.0459826839798
 30
0.0
 11
236.9977825523089
 21
108.3459826836659
 31
0.0
  0
LINE
  5
1E0
330
1F
100
AcDbEntity
  8
0
  6
Continuous
 62
     7
100
AcDbLine
 10
236.9977825519943
 20
112.34598268398
 30
0.0
 11
236.9977825523083
 21
113.3459826836659
 31
0.0
  0
LINE
  5
1E1
330
1F
100
AcDbEntity
  8
0
  6
Continuous
 62
     7
100
AcDbLine
 10
236.9977825523081
 20
114.8459826836659
 30
0.0
 11
236.9977825523049
 21
143.0959826836658
 31
0.0
  0
LINE
  5
1E2
330
1F
100
AcDbEntity
  8
0
  6
Continuous
 62
     7
100
AcDbLine
 10
212.7585312817814
 20
81.84598268366818
 30
0.0
 11
208.4284042628586
 21
89.3459826836675
 31
0.0
  0
LINE
  5
1E3
330
1F
100
AcDbEntity
  8
0
  6
Continuous
 62
     7
100
AcDbLine
 10
208.4284042628589
 20
88.44598268366718
 30
0.0
 11
212.2389160395109
 21
81.84598268366796
 31
0.0
  0
LINE
  5
1E4
330
1F
100
AcDbEntity
  8
0
  6
Continuous
 62
     7
100
AcDbLine
 10
211.1419505280506
 20
81.84598268366796
 30
0.0
 11
208.4284042628589
 21
86.54598268366738
 31
0.0
  0
LINE
  5
1E5
330
1F
100
AcDbEntity
  8
0
  6
Continuous
 62
     7
100
AcDbLine
 10
208.428404262859
 20
85.64598268366746
 30
0.0
 11
210.62233528578
 21
81.84598268366778
 31
0.0
  0
LINE
  5
1E6
330
1F
100
AcDbEntity
  8
0
  6
Continuous
 62
     7
100
AcDbLine
 10
192.4412100335111
 20
101.1959826836608
 30
0.0
 11
193.8746895523099
 21
99.76250316486238
 31
0.0
  0
LINE
  5
1E7
330
1F
100
AcDbEntity
  8
0
  6
Continuous
 62
     7
100
AcDbLine
 10
192.4412100335105
 20
105.9959826836608
 30
0.0
 11
193.874689552309
 21
107.4294622024594
 31
0.0
  0
LINE
  5
1E8
330
1F
100
AcDbEntity
  8
0
  6
Continuous
 62
     7
100
AcDbLine
 10
192.4412100335111
 20
101.1959826836608
 30
0.0
 11
191.9432100335112
 21
101.1959826836607
 31
0.0
  0
LINE
  5
1E9
330
1F
100
AcDbEntity
  8
0
  6
Continuous
 62
     7
100
AcDbLine
 10
191.94321003351
 20
111.0959826836607
 30
0.0
 11
191.94321003351
 21
109.6724975957297
 31
0.0
  0
LINE
  5
1EA
330
1F
100
AcDbEntity
  8
0
  6
Continuous
 62
     7
100
AcDbLine
 10
192.4412100335111
 20
101.1959826836608
 30
0.0
 11
192.4412100335109
 21
103.5959826836608
 31
0.0
  0
LINE
  5
1EB
330
1F
100
AcDbEntity
  8
0
  6
Continuous
 62
     7
100
AcDbLine
 10
192.4412100335109
 20
103.5959826836608
 30
0.0
 11
192.4412100335105
 21
105.9959826836608
 31
0.0
  0
LINE
  5
1EC
330
1F
100
AcDbEntity
  8
0
  6
Continuous
 62
     7
100
AcDbLine
 10
191.9432100335104
 20
107.4959826836607
 30
0.0
 11
191.94321003351
 21
109.6724975957297
 31
0.0
  0
LINE
  5
1ED
330
1F
100
AcDbEntity
  8
0
  6
Continuous
 62
     7
100
AcDbLine
 10
191.9432100335111
 20
101.5889103862663
 30
0.0
 11
191.9432100335104
 21
107.4959826836607
 31
0.0
  0
LINE
  5
1EE
330
1F
100
AcDbEntity
  8
0
  6
Continuous
 62
     7
100
AcDbLine
 10
191.9432100335112
 20
101.1959826836607
 30
0.0
 11
191.9432100335111
 21
101.5889103862663
 31
0.0
  0
LINE
  5
1EF
330
1F
100
AcDbEntity
  8
0
  6
Continuous
 62
     7
100
AcDbLine
 10
191.9432100335115
 20
97.66022040109226
 30
0.0
 11
191.9432100335112
 21
101.1959826836607
 31
0.0
  0
LINE
  5
1F0
330
1F
100
AcDbEntity
  8
0
  6
Continuous
 62
     7
100
AcDbLine
 10
192.4412100335105
 20
105.9959826836608
 30
0.0
 11
191.9432100335105
 21
105.9959826836607
 31
0.0
  0
LINE
  5
1F1
330
1F
100
AcDbEntity
  8
0
  6
Continuous
 62
     7
100
AcDbLine
 10
186.4432100335102
 20
109.6724975957292
 30
0.0
 11
186.4432100335117
 21
96.12444304362378
 31
0.0
  0
LINE
  5
1F2
330
1F
100
AcDbEntity
  8
0
  6
Continuous
 62
     7
100
AcDbLine
 10
186.443210033512
 20
94.11141282863531
 30
0.0
 11
186.4432100335121
 21
92.59598268366398
 31
0.0
  0
LINE
  5
1F3
330
1F
100
AcDbEntity
  8
0
  6
Continuous
 62
     7
100
AcDbLine
 10
186.4432100335119
 20
94.68788370813576
 30
0.0
 11
186.443210033512
 21
94.11141282863531
 31
0.0
  0
LINE
  5
1F4
330
1F
100
AcDbEntity
  8
0
  6
Continuous
 62
     7
100
AcDbLine
 10
186.4432100335117
 20
96.09598268366011
 30
0.0
 11
186.4432100335119
 21
94.68788370813576
 31
0.0
  0
LINE
  5
1F5
330
1F
100
AcDbEntity
  8
0
  6
Continuous
 62
     7
100
AcDbLine
 10
186.4432100335117
 20
96.11969965029647
 30
0.0
 11
186.4432100335117
 21
96.09598268366011
 31
0.0
  0
LINE
  5
1F6
330
1F
100
AcDbEntity
  8
0
  6
Continuous
 62
     7
100
AcDbLine
 10
186.4432100335117
 20
96.12444304362378
 30
0.0
 11
186.4432100335117
 21
96.11969965029647
 31
0.0
  0
LINE
  5
1F7
330
1F
100
AcDbEntity
  8
0
  6
Continuous
 62
     7
100
AcDbLine
 10
186.44321003351
 20
111.0959826836601
 30
0.0
 11
186.4432100335102
 21
109.6724975957292
 31
0.0
  0
LINE
  5
1F8
330
1F
100
AcDbEntity
  8
0
  6
Continuous
 62
     7
100
AcDbLine
 10
191.94321003351
 20
111.0959826836607
 30
0.0
 11
186.44321003351
 21
111.0959826836601
 31
0.0
  0
LINE
  5
1F9
330
1F
100
AcDbEntity
  8
0
  6
Continuous
 62
     7
100
AcDbLine
 10
186.4432100335121
 20
92.49598268366395
 30
0.0
 11
186.4432100335121
 21
92.57893103548275
 31
0.0
  0
LINE
  5
1FA
330
1F
100
AcDbEntity
  8
0
  6
Continuous
 62
     7
100
AcDbLine
 10
186.4432100335121
 20
92.57893103548275
 30
0.0
 11
186.4432100335121
 21
92.59598268366398
 31
0.0
  0
LINE
  5
1FB
330
1F
100
AcDbEntity
  8
0
  6
Continuous
 62
     7
100
AcDbLine
 10
186.4432100335121
 20
92.47917463045678
 30
0.0
 11
186.4432100335121
 21
92.49598268366395
 31
0.0
  0
LINE
  5
1FC
330
1F
100
AcDbEntity
  8
0
  6
Continuous
 62
     7
100
AcDbLine
 10
186.4432100335129
 20
85.58212601717878
 30
0.0
 11
186.4432100335128
 21
86.14898585550736
 31
0.0
  0
LINE
  5
1FD
330
1F
100
AcDbEntity
  8
0
  6
Continuous
 62
     7
100
AcDbLine
 10
186.4432100335128
 20
86.32768192653828
 30
0.0
 11
186.4432100335127
 21
87.26524376330241
 31
0.0
  0
LINE
  5
1FE
330
1F
100
AcDbEntity
  8
0
  6
Continuous
 62
     7
100
AcDbLine
 10
186.443210033513
 20
84.39781025776284
 30
0.0
 11
186.443210033513
 21
84.88844268366034
 31
0.0
  0
LINE
  5
1FF
330
1F
100
AcDbEntity
  8
0
  6
Continuous
 62
     7
100
AcDbLine
 10
186.4432100335129
 20
85.35168620674716
 30
0.0
 11
186.4432100335129
 21
85.35517615641749
 31
0.0
  0
LINE
  5
200
330
1F
100
AcDbEntity
  8
0
  6
Continuous
 62
     7
100
AcDbLine
 10
186.443210033513
 20
84.88844268366034
 30
0.0
 11
186.443210033513
 21
84.89598268365859
 31
0.0
  0
LINE
  5
201
330
1F
100
AcDbEntity
  8
0
  6
Continuous
 62
     7
100
AcDbLine
 10
186.443210033513
 20
84.89598268365859
 30
0.0
 11
186.4432100335129
 21
85.35168620674716
 31
0.0
  0
LINE
  5
202
330
1F
100
AcDbEntity
  8
0
  6
Continuous
 62
     7
100
AcDbLine
 10
186.4432100335127
 20
87.28943595286233
 30
0.0
 11
186.4432100335127
 21
87.39598268365916
 31
0.0
  0
LINE
  5
203
330
1F
100
AcDbEntity
  8
0
  6
Continuous
 62
     7
100
AcDbLine
 10
186.4432100335127
 20
87.39598268365916
 30
0.0
 11
186.4432100335127
 21
87.73982222520527
 31
0.0
  0
LINE
  5
204
330
1F
100
AcDbEntity
  8
0
  6
Continuous
 62
     7
100
AcDbLine
 10
186.4432100335129
 20
85.35517615641749
 30
0.0
 11
186.4432100335129
 21
85.58212601717878
 31
0.0
  0
LINE
  5
205
330
1F
100
AcDbEntity
  8
0
  6
Continuous
 62
     7
100
AcDbLine
 10
186.4432100335128
 20
86.14898585550736
 30
0.0
 11
186.4432100335128
 21
86.31722908021146
 31
0.0
  0
LINE
  5
206
330
1F
100
AcDbEntity
  8
0
  6
Continuous
 62
     7
100
AcDbLine
 10
186.4432100335128
 20
86.31722908021146
 30
0.0
 11
186.4432100335128
 21
86.32768192653828
 31
0.0
  0
LINE
  5
207
330
1F
100
AcDbEntity
  8
0
  6
Continuous
 62
     7
100
AcDbLine
 10
186.4432100335127
 20
87.73982222520527
 30
0.0
 11
186.4432100335126
 21
87.89455001890241
 31
0.0
  0
LINE
  5
208
330
1F
100
AcDbEntity
  8
0
  6
Continuous
 62
     7
100
AcDbLine
 10
186.4432100335126
 20
87.89455001890241
 30
0.0
 11
186.4432100335126
 21
88.18076817823447
 31
0.0
  0
LINE
  5
209
330
1F
100
AcDbEntity
  8
0
  6
Continuous
 62
     7
100
AcDbLine
 10
208.4284042628589
 20
88.44598268366718
 30
0.0
 11
208.4284042628589
 21
86.54598268366738
 31
0.0
  0
LINE
  5
20A
330
1F
100
AcDbEntity
  8
0
  6
Continuous
 62
     7
100
AcDbLine
 10
207.9284042628586
 20
88.18076817823686
 30
0.0
 11
207.9284042628587
 21
88.21822883757858
 31
0.0
  0
LINE
  5
20B
330
1F
100
AcDbEntity
  8
0
  6
Continuous
 62
     7
100
AcDbLine
 10
207.9284042628588
 20
87.28943595286484
 30
0.0
 11
207.9284042628586
 21
88.18076817823686
 31
0.0
  0
LINE
  5
20C
330
1F
100
AcDbEntity
  8
0
  6
Continuous
 62
     7
100
AcDbLine
 10
207.9284042628586
 20
89.09598268366716
 30
0.0
 11
207.9284042628584
 21
89.84404686341406
 31
0.0
  0
LINE
  5
20D
330
1F
100
AcDbEntity
  8
0
  6
Continuous
 62
     7
100
AcDbLine
 10
207.9284042628584
 20
89.84404686341406
 30
0.0
 11
207.9284042628585
 21
89.90561301094664
 31
0.0
  0
LINE
  5
20E
330
1F
100
AcDbEntity
  8
0
  6
Continuous
 62
     7
100
AcDbLine
 10
207.9284042628588
 20
86.31722908021396
 30
0.0
 11
207.9284042628589
 21
86.32768192654078
 31
0.0
  0
LINE
  5
20F
330
1F
100
AcDbEntity
  8
0
  6
Continuous
 62
     7
100
AcDbLine
 10
186.4432100335122
 20
91.77661583367677
 30
0.0
 11
186.4432100335122
 21
92.07986176708698
 31
0.0
  0
LINE
  5
210
330
1F
100
AcDbEntity
  8
0
  6
Continuous
 62
     7
100
AcDbLine
 10
186.4432100335122
 20
92.07986176708698
 30
0.0
 11
186.4432100335122
 21
92.17383102916557
 31
0.0
  0
LINE
  5
211
330
1F
100
AcDbEntity
  8
0
  6
Continuous
 62
     7
100
AcDbLine
 10
186.4432100335122
 20
91.25910164428905
 30
0.0
 11
186.4432100335122
 21
91.6883210743909
 31
0.0
  0
LINE
  5
212
330
1F
100
AcDbEntity
  8
0
  6
Continuous
 62
     7
100
AcDbLine
 10
186.4432100335122
 20
91.6883210743909
 30
0.0
 11
186.4432100335122
 21
91.77661583367677
 31
0.0
  0
LINE
  5
213
330
1F
100
AcDbEntity
  8
0
  6
Continuous
 62
     7
100
AcDbLine
 10
186.4432100335123
 20
90.63136128603509
 30
0.0
 11
186.4432100335123
 21
91.17819994485154
 31
0.0
  0
LINE
  5
214
330
1F
100
AcDbEntity
  8
0
  6
Continuous
 62
     7
100
AcDbLine
 10
186.4432100335123
 20
91.17819994485154
 30
0.0
 11
186.4432100335122
 21
91.25910164428905
 31
0.0
  0
LINE
  5
215
330
1F
100
AcDbEntity
  8
0
  6
Continuous
 62
     7
100
AcDbLine
 10
186.4432100335124
 20
90.55942730600117
 30
0.0
 11
186.4432100335123
 21
90.63136128603509
 31
0.0
  0
LINE
  5
216
330
1F
100
AcDbEntity
  8
0
  6
Continuous
 62
     7
100
AcDbLine
 10
186.4432100335125
 20
89.0459826836647
 30
0.0
 11
186.4432100335125
 21
89.09598268366466
 31
0.0
  0
LINE
  5
217
330
1F
100
AcDbEntity
  8
0
  6
Continuous
 62
     7
100
AcDbLine
 10
186.4432100335125
 20
89.09598268366466
 30
0.0
 11
186.4432100335124
 21
89.84404686341168
 31
0.0
  0
LINE
  5
218
330
1F
100
AcDbEntity
  8
0
  6
Continuous
 62
     7
100
AcDbLine
 10
186.4432100335124
 20
89.84404686341168
 30
0.0
 11
186.4432100335124
 21
89.90561301094414
 31
0.0
  0
LINE
  5
219
330
1F
100
AcDbEntity
  8
0
  6
Continuous
 62
     7
100
AcDbLine
 10
186.4432100335124
 20
89.90561301094414
 30
0.0
 11
186.4432100335124
 21
90.55942730600117
 31
0.0
  0
LINE
  5
21A
330
1F
100
AcDbEntity
  8
0
  6
Continuous
 62
     7
100
AcDbLine
 10
186.4432100335126
 20
88.3959826836579
 30
0.0
 11
186.4432100335125
 21
88.97513433967714
 31
0.0
  0
LINE
  5
21B
330
1F
100
AcDbEntity
  8
0
  6
Continuous
 62
     7
100
AcDbLine
 10
186.4432100335125
 20
88.97513433967714
 30
0.0
 11
186.4432100335125
 21
89.0459826836647
 31
0.0
  0
LINE
  5
21C
330
1F
100
AcDbEntity
  8
0
  6
Continuous
 62
     7
100
AcDbLine
 10
186.4432100335126
 20
88.21822883757608
 30
0.0
 11
186.4432100335126
 21
88.3959826836579
 31
0.0
  0
LINE
  5
21D
330
1F
100
AcDbEntity
  8
0
  6
Continuous
 62
     7
100
AcDbLine
 10
208.4284042628586
 20
89.3459826836675
 30
0.0
 11
212.5275911741049
 21
89.34598268366796
 31
0.0
  0
LINE
  5
21E
330
1F
100
AcDbEntity
  8
0
  6
Continuous
 62
     7
100
AcDbLine
 10
212.5275911741049
 20
89.34598268366796
 30
0.0
 11
212.0079759318342
 21
88.44598268366758
 31
0.0
  0
LINE
  5
21F
330
1F
100
AcDbEntity
  8
0
  6
Continuous
 62
     7
100
AcDbLine
 10
207.9284042628586
 20
89.09598268366716
 30
0.0
 11
186.4432100335125
 21
89.09598268366466
 31
0.0
  0
LINE
  5
220
330
1F
100
AcDbEntity
  8
0
  6
Continuous
 62
     7
100
AcDbLine
 10
198.1100947727249
 20
89.04598268366595
 30
0.0
 11
198.016339869732
 21
89.00332769115846
 31
0.0
  0
LINE
  5
221
330
1F
100
AcDbEntity
  8
0
  6
Continuous
 62
     7
100
AcDbLine
 10
198.1410898680511
 20
89.06008429879967
 30
0.0
 11
198.1100947727249
 21
89.04598268366595
 31
0.0
  0
LINE
  5
222
330
1F
100
AcDbEntity
  8
0
  6
Continuous
 62
     7
100
AcDbLine
 10
207.9284042628587
 20
88.21822883757858
 30
0.0
 11
191.9432100335125
 21
88.21822883757665
 31
0.0
  0
LINE
  5
223
330
1F
100
AcDbEntity
  8
0
  6
Continuous
 62
     7
100
AcDbLine
 10
207.9284042628585
 20
89.90561301094664
 30
0.0
 11
186.4432100335124
 21
89.90561301094414
 31
0.0
  0
LINE
  5
224
330
1F
100
AcDbEntity
  8
0
  6
Continuous
 62
     7
100
AcDbLine
 10
186.4432100335128
 20
86.32768192653828
 30
0.0
 11
207.9284042628589
 21
86.32768192654078
 31
0.0
  0
LINE
  5
225
330
1F
100
AcDbEntity
  8
0
  6
Continuous
 62
     7
100
AcDbLine
 10
207.9284042628592
 20
84.39781025776534
 30
0.0
 11
186.443210033513
 21
84.39781025776284
 31
0.0
  0
LINE
  5
226
330
1F
100
AcDbEntity
  8
0
  6
Continuous
 62
     7
100
AcDbLine
 10
207.928404262859
 20
85.35168620674966
 30
0.0
 11
207.9284042628589
 21
85.35517615641987
 31
0.0
  0
LINE
  5
227
330
1F
100
AcDbEntity
  8
0
  6
Continuous
 62
     7
100
AcDbLine
 10
207.928404262859
 20
85.35168620674966
 30
0.0
 11
186.4432100335129
 21
85.35168620674716
 31
0.0
  0
LINE
  5
228
330
1F
100
AcDbEntity
  8
0
  6
Continuous
 62
     7
100
AcDbLine
 10
191.9432100335125
 20
88.21822883757665
 30
0.0
 11
186.4432100335126
 21
88.21822883757608
 31
0.0
  0
LINE
  5
229
330
1F
100
AcDbEntity
  8
0
  6
Continuous
 62
     7
100
AcDbLine
 10
186.4432100335126
 20
88.18076817823447
 30
0.0
 11
186.4432100335126
 21
88.21822883757608
 31
0.0
  0
LINE
  5
22A
330
1F
100
AcDbEntity
  8
0
  6
Continuous
 62
     7
100
AcDbLine
 10
207.9284042628589
 20
85.35517615641987
 30
0.0
 11
207.9284042628588
 21
86.31722908021396
 31
0.0
  0
LINE
  5
22B
330
1F
100
AcDbEntity
  8
0
  6
Continuous
 62
     7
100
AcDbLine
 10
212.0079759318346
 20
85.84598268366778
 30
0.0
 11
211.2574205818879
 21
87.14598268366746
 31
0.0
  0
LINE
  5
22C
330
1F
100
AcDbEntity
  8
0
  6
Continuous
 62
     7
100
AcDbLine
 10
211.4076982568613
 20
87.40627125196477
 30
0.0
 11
212.5335312817811
 21
86.75627125196496
 31
0.0
  0
LINE
  5
22D
330
1F
100
AcDbEntity
  8
0
  6
Continuous
 62
     7
100
AcDbLine
 10
212.9835312817811
 20
87.53569411537097
 30
0.0
 11
211.8576982568613
 21
88.18569411537078
 31
0.0
  0
LINE
  5
22E
330
1F
100
AcDbEntity
  8
0
  6
Continuous
 62
     7
100
AcDbLine
 10
213.5090866317272
 20
88.44598268366775
 30
0.0
 11
212.9835312817811
 21
87.53569411537097
 31
0.0
  0
LINE
  5
22F
330
1F
100
AcDbEntity
  8
0
  6
Continuous
 62
     7
100
AcDbLine
 10
212.0079759318342
 20
88.44598268366758
 30
0.0
 11
213.5090866317272
 21
88.44598268366775
 31
0.0
  0
LINE
  5
230
330
1F
100
AcDbEntity
  8
0
  6
Continuous
 62
     7
100
AcDbLine
 10
211.8576982568613
 20
88.18569411537078
 30
0.0
 11
211.4076982568613
 21
87.40627125196477
 31
0.0
  0
LINE
  5
231
330
1F
100
AcDbEntity
  8
0
  6
Continuous
 62
     7
100
AcDbLine
 10
211.2574205818879
 20
87.14598268366746
 30
0.0
 11
210.7378053396176
 21
86.24598268366759
 31
0.0
  0
LINE
  5
232
330
1F
100
AcDbEntity
  8
0
  6
Continuous
 62
     7
100
AcDbLine
 10
212.5335312817811
 20
86.75627125196496
 30
0.0
 11
212.0079759318346
 21
85.84598268366778
 31
0.0
  0
LINE
  5
233
330
1F
100
AcDbEntity
  8
0
  6
Continuous
 62
     7
100
AcDbLine
 10
186.4432100335121
 20
92.34520112872741
 30
0.0
 11
186.4432100335121
 21
92.44301588880074
 31
0.0
  0
LINE
  5
234
330
1F
100
AcDbEntity
  8
0
  6
Continuous
 62
     7
100
AcDbLine
 10
186.4432100335122
 20
92.17383102916557
 30
0.0
 11
186.4432100335121
 21
92.34520112872741
 31
0.0
  0
LINE
  5
235
330
1F
100
AcDbEntity
  8
0
  6
Continuous
 62
     7
100
AcDbLine
 10
186.4432100335121
 20
92.44301588880074
 30
0.0
 11
186.4432100335121
 21
92.47917463045678
 31
0.0
  0
LINE
  5
236
330
1F
100
AcDbEntity
  8
0
  6
Continuous
 62
     7
100
AcDbLine
 10
186.4432100335131
 20
83.46376542247759
 30
0.0
 11
186.443210033513
 21
84.07796480153894
 31
0.0
  0
LINE
  5
237
330
1F
100
AcDbEntity
  8
0
  6
Continuous
 62
     7
100
AcDbLine
 10
186.4432100335132
 20
82.59598268366136
 30
0.0
 11
186.4432100335131
 21
83.43286372304004
 31
0.0
  0
LINE
  5
238
330
1F
100
AcDbEntity
  8
0
  6
Continuous
 62
     7
100
AcDbLine
 10
186.4432100335133
 20
82.57122177081993
 30
0.0
 11
186.4432100335132
 21
82.59598268366136
 31
0.0
  0
LINE
  5
239
330
1F
100
AcDbEntity
  8
0
  6
Continuous
 62
     7
100
AcDbLine
 10
186.4432100335131
 20
83.43286372304004
 30
0.0
 11
186.4432100335131
 21
83.46376542247759
 31
0.0
  0
LINE
  5
23A
330
1F
100
AcDbEntity
  8
0
  6
Continuous
 62
     7
100
AcDbLine
 10
186.443210033513
 20
84.07796480153894
 30
0.0
 11
186.443210033513
 21
84.38044543999621
 31
0.0
  0
LINE
  5
23B
330
1F
100
AcDbEntity
  8
0
  6
Continuous
 62
     7
100
AcDbLine
 10
210.7378053396176
 20
86.24598268366759
 30
0.0
 11
212.0079759318347
 21
84.04598268366811
 31
0.0
  0
LINE
  5
23C
330
1F
100
AcDbEntity
  8
0
  6
Continuous
 62
     7
100
AcDbLine
 10
212.2677835529701
 20
83.59598268366796
 30
0.0
 11
212.6456147693214
 21
82.94155982026206
 31
0.0
  0
LINE
  5
23D
330
1F
100
AcDbEntity
  8
0
  6
Continuous
 62
     7
100
AcDbLine
 10
188.8820253229246
 20
83.43286372304038
 30
0.0
 11
207.9284042628593
 21
83.43286372304249
 31
0.0
  0
LINE
  5
23E
330
1F
100
AcDbEntity
  8
0
  6
Continuous
 62
     7
100
AcDbLine
 10
186.4432100335131
 20
83.43286372304004
 30
0.0
 11
188.8820253229246
 21
83.43286372304038
 31
0.0
  0
LINE
  5
23F
330
1F
100
AcDbEntity
  8
0
  6
Continuous
 62
     7
100
AcDbLine
 10
207.9284042628593
 20
83.43286372304249
 30
0.0
 11
207.9284042628591
 21
83.46376542247998
 31
0.0
  0
LINE
  5
240
330
1F
100
AcDbEntity
  8
0
  6
Continuous
 62
     7
100
AcDbLine
 10
208.428404262859
 20
85.64598268366746
 30
0.0
 11
208.4284042628592
 21
83.74598268366776
 31
0.0
  0
LINE
  5
241
330
1F
100
AcDbEntity
  8
0
  6
Continuous
 62
     7
100
AcDbLine
 10
207.9284042628593
 20
82.57122177082238
 30
0.0
 11
186.4432100335133
 21
82.57122177081993
 31
0.0
  0
LINE
  5
242
330
1F
100
AcDbEntity
  8
0
  6
Continuous
 62
     7
100
AcDbLine
 10
209.5253697743197
 20
81.84598268366778
 30
0.0
 11
208.4284042628592
 21
83.74598268366776
 31
0.0
  0
LINE
  5
243
330
1F
100
AcDbEntity
  8
0
  6
Continuous
 62
     7
100
AcDbLine
 10
208.4284042628593
 20
82.84598268366761
 30
0.0
 11
209.005754532049
 21
81.84598268366778
 31
0.0
  0
LINE
  5
244
330
1F
100
AcDbEntity
  8
0
  6
Continuous
 62
     7
100
AcDbLine
 10
208.4284042628594
 20
81.84598268366767
 30
0.0
 11
209.005754532049
 21
81.84598268366778
 31
0.0
  0
LINE
  5
245
330
1F
100
AcDbEntity
  8
0
  6
Continuous
 62
     7
100
AcDbLine
 10
208.4284042628593
 20
82.84598268366761
 30
0.0
 11
208.4284042628594
 21
81.84598268366767
 31
0.0
  0
LINE
  5
246
330
1F
100
AcDbEntity
  8
0
  6
Continuous
 62
     7
100
AcDbLine
 10
186.4432100335133
 20
82.09598268366489
 30
0.0
 11
186.4432100335133
 21
82.52738465614107
 31
0.0
  0
LINE
  5
247
330
1F
100
AcDbEntity
  8
0
  6
Continuous
 62
     7
100
AcDbLine
 10
186.4432100335133
 20
81.73755164971641
 30
0.0
 11
186.4432100335133
 21
82.09598268366489
 31
0.0
  0
LINE
  5
248
330
1F
100
AcDbEntity
  8
0
  6
Continuous
 62
     7
100
AcDbLine
 10
207.9284042628593
 20
81.73755164971891
 30
0.0
 11
207.9284042628594
 21
82.52738465614351
 31
0.0
  0
LINE
  5
249
330
1F
100
AcDbEntity
  8
0
  6
Continuous
 62
     7
100
AcDbLine
 10
211.1419505280506
 20
81.84598268366796
 30
0.0
 11
212.2389160395109
 21
81.84598268366796
 31
0.0
  0
LINE
  5
24A
330
1F
100
AcDbEntity
  8
0
  6
Continuous
 62
     7
100
AcDbLine
 10
207.9284042628594
 20
81.6816323593718
 30
0.0
 11
207.9284042628593
 21
81.73755164971891
 31
0.0
  0
LINE
  5
24B
330
1F
100
AcDbEntity
  8
0
  6
Continuous
 62
     7
100
AcDbLine
 10
188.8533275032888
 20
81.68163235936964
 30
0.0
 11
207.9284042628594
 21
81.6816323593718
 31
0.0
  0
LINE
  5
24C
330
1F
100
AcDbEntity
  8
0
  6
Continuous
 62
     7
100
AcDbLine
 10
186.4432100335133
 20
81.68163235936942
 30
0.0
 11
188.8533275032888
 21
81.68163235936964
 31
0.0
  0
LINE
  5
24D
330
1F
100
AcDbEntity
  8
0
  6
Continuous
 62
     7
100
AcDbLine
 10
209.5253697743197
 20
81.84598268366778
 30
0.0
 11
210.62233528578
 21
81.84598268366778
 31
0.0
  0
LINE
  5
24E
330
1F
100
AcDbEntity
  8
0
  6
Continuous
 62
     7
100
AcDbLine
 10
186.4432100335134
 20
80.9789814997884
 30
0.0
 11
186.4432100335133
 21
81.68163235936942
 31
0.0
  0
LINE
  5
24F
330
1F
100
AcDbEntity
  8
0
  6
Continuous
 62
     7
100
AcDbLine
 10
186.4432100335133
 20
81.68163235936942
 30
0.0
 11
186.4432100335133
 21
81.73755164971641
 31
0.0
  0
LINE
  5
250
330
1F
100
AcDbEntity
  8
0
  6
Continuous
 62
     7
100
AcDbLine
 10
186.443210033513
 20
84.38044543999621
 30
0.0
 11
186.443210033513
 21
84.39781025776284
 31
0.0
  0
LINE
  5
251
330
1F
100
AcDbEntity
  8
0
  6
Continuous
 62
     7
100
AcDbLine
 10
186.4432100335127
 20
87.26524376330241
 30
0.0
 11
186.4432100335127
 21
87.28943595286233
 31
0.0
  0
LINE
  5
252
330
1F
100
AcDbEntity
  8
0
  6
Continuous
 62
     7
100
AcDbLine
 10
186.4432100335133
 20
82.57122177081993
 30
0.0
 11
186.4432100335133
 21
82.52738465614107
 31
0.0
  0
LINE
  5
253
330
1F
100
AcDbEntity
  8
0
  6
Continuous
 62
     7
100
AcDbLine
 10
186.4432100335134
 20
80.9789814997884
 30
0.0
 11
186.4432100335134
 21
80.91206843915239
 31
0.0
  0
LINE
  5
254
330
1F
100
AcDbEntity
  8
0
  6
Continuous
 62
     7
100
AcDbLine
 10
186.4432100335135
 20
80.31027602614347
 30
0.0
 11
186.4432100335134
 21
80.91206843915239
 31
0.0
  0
LINE
  5
255
330
1F
100
AcDbEntity
  8
0
  6
Continuous
 62
     7
100
AcDbLine
 10
186.4432100335135
 20
80.29598268366357
 30
0.0
 11
186.4432100335135
 21
80.31027602614347
 31
0.0
  0
LINE
  5
256
330
1F
100
AcDbEntity
  8
0
  6
Continuous
 62
     7
100
AcDbLine
 10
186.4432100335135
 20
80.23367158183157
 30
0.0
 11
186.4432100335135
 21
80.29598268366357
 31
0.0
  0
LINE
  5
257
330
1F
100
AcDbEntity
  8
0
  6
Continuous
 62
     7
100
AcDbLine
 10
186.4432100335135
 20
79.74445082018497
 30
0.0
 11
186.4432100335135
 21
80.23367158183157
 31
0.0
  0
LINE
  5
258
330
1F
100
AcDbEntity
  8
0
  6
Continuous
 62
     7
100
AcDbLine
 10
186.4432100335135
 20
79.74445082018497
 30
0.0
 11
186.4432100335136
 21
79.65964601056925
 31
0.0
  0
LINE
  5
259
330
1F
100
AcDbEntity
  8
0
  6
Continuous
 62
     7
100
AcDbLine
 10
186.4432100335136
 20
79.29251902593029
 30
0.0
 11
186.4432100335136
 21
79.65964601056925
 31
0.0
  0
LINE
  5
25A
330
1F
100
AcDbEntity
  8
0
  6
Continuous
 62
     7
100
AcDbLine
 10
186.4432100335136
 20
79.20116448016597
 30
0.0
 11
186.4432100335136
 21
79.29251902593029
 31
0.0
  0
LINE
  5
25B
330
1F
100
AcDbEntity
  8
0
  6
Continuous
 62
     7
100
AcDbLine
 10
186.4432100335137
 20
78.96327698168972
 30
0.0
 11
186.4432100335136
 21
79.20116448016597
 31
0.0
  0
LINE
  5
25C
330
1F
100
AcDbEntity
  8
0
  6
Continuous
 62
     7
100
AcDbLine
 10
186.4432100335137
 20
78.96327698168972
 30
0.0
 11
186.4432100335137
 21
78.86715081209587
 31
0.0
  0
LINE
  5
25D
330
1F
100
AcDbEntity
  8
0
  6
Continuous
 62
     7
100
AcDbLine
 10
186.4432100335137
 20
78.69598268366389
 30
0.0
 11
186.4432100335137
 21
78.7631330093472
 31
0.0
  0
LINE
  5
25E
330
1F
100
AcDbEntity
  8
0
  6
Continuous
 62
     7
100
AcDbLine
 10
186.4432100335137
 20
78.59598268366386
 30
0.0
 11
186.4432100335137
 21
78.66410620247296
 31
0.0
  0
LINE
  5
25F
330
1F
100
AcDbEntity
  8
0
  6
Continuous
 62
     7
100
AcDbLine
 10
186.4432100335137
 20
78.66410620247296
 30
0.0
 11
186.4432100335137
 21
78.69598268366389
 31
0.0
  0
LINE
  5
260
330
1F
100
AcDbEntity
  8
0
  6
Continuous
 62
     7
100
AcDbLine
 10
191.9432100335137
 20
78.5959826836608
 30
0.0
 11
186.4432100335137
 21
78.59598268366386
 31
0.0
  0
LINE
  5
261
330
1F
100
AcDbEntity
  8
0
  6
Continuous
 62
     7
100
AcDbLine
 10
186.4432100335137
 20
78.7631330093472
 30
0.0
 11
186.4432100335137
 21
78.86715081209587
 31
0.0
  0
LINE
  5
262
330
1F
100
AcDbEntity
  8
0
  6
Continuous
 62
     7
100
AcDbLine
 10
194.9432100335137
 20
78.59598268366409
 30
0.0
 11
191.9432100335137
 21
78.5959826836608
 31
0.0
  0
LINE
  5
263
330
1F
100
AcDbEntity
  8
0
  6
Continuous
 62
     7
100
AcDbLine
 10
238.4432100335112
 20
101.195982683666
 30
0.0
 11
237.0011073521778
 21
99.75388000233238
 31
0.0
  0
LINE
  5
264
330
1F
100
AcDbEntity
  8
0
  6
Continuous
 62
     7
100
AcDbLine
 10
238.4432100335106
 20
105.995982683666
 30
0.0
 11
237.0011073521769
 21
107.4380853649994
 31
0.0
  0
LINE
  5
265
330
1F
100
AcDbEntity
  8
0
  6
Continuous
 62
     7
100
AcDbLine
 10
244.44321003351
 20
109.6724975957357
 30
0.0
 11
244.4432100335117
 21
96.12444304363038
 31
0.0
  0
LINE
  5
266
330
1F
100
AcDbEntity
  8
0
  6
Continuous
 62
     7
100
AcDbLine
 10
237.0011073521778
 20
99.75388000233238
 30
0.0
 11
236.9977825523097
 21
101.0959826836659
 31
0.0
  0
LINE
  5
267
330
1F
100
AcDbEntity
  8
0
  6
Continuous
 62
     7
100
AcDbLine
 10
238.4432100335112
 20
101.195982683666
 30
0.0
 11
238.9432100335112
 21
101.1959826836661
 31
0.0
  0
LINE
  5
268
330
1F
100
AcDbEntity
  8
0
  6
Continuous
 62
     7
100
AcDbLine
 10
238.4432100335106
 20
105.995982683666
 30
0.0
 11
238.9432100335105
 21
105.9959826836661
 31
0.0
  0
LINE
  5
269
330
1F
100
AcDbEntity
  8
0
  6
Continuous
 62
     7
100
AcDbLine
 10
238.4432100335108
 20
103.595982683666
 30
0.0
 11
238.4432100335112
 21
101.195982683666
 31
0.0
  0
LINE
  5
26A
330
1F
100
AcDbEntity
  8
0
  6
Continuous
 62
     7
100
AcDbLine
 10
238.9432100335112
 20
101.1959826836661
 30
0.0
 11
238.9432100335115
 21
97.66022040109766
 31
0.0
  0
LINE
  5
26B
330
1F
100
AcDbEntity
  8
0
  6
Continuous
 62
     7
100
AcDbLine
 10
238.9432100335105
 20
105.9959826836661
 30
0.0
 11
238.9432100335112
 21
101.5897326836661
 31
0.0
  0
LINE
  5
26C
330
1F
100
AcDbEntity
  8
0
  6
Continuous
 62
     7
100
AcDbLine
 10
238.9432100335104
 20
107.4959826836661
 30
0.0
 11
238.9432100335105
 21
105.9959826836661
 31
0.0
  0
LINE
  5
26D
330
1F
100
AcDbEntity
  8
0
  6
Continuous
 62
     7
100
AcDbLine
 10
238.94321003351
 20
109.6724975957351
 30
0.0
 11
238.9432100335104
 21
107.4959826836661
 31
0.0
  0
LINE
  5
26E
330
1F
100
AcDbEntity
  8
0
  6
Continuous
 62
     7
100
AcDbLine
 10
238.94321003351
 20
111.0959826836661
 30
0.0
 11
238.94321003351
 21
109.6724975957351
 31
0.0
  0
LINE
  5
26F
330
1F
100
AcDbEntity
  8
0
  6
Continuous
 62
     7
100
AcDbLine
 10
238.4432100335106
 20
105.995982683666
 30
0.0
 11
238.4432100335108
 21
103.595982683666
 31
0.0
  0
LINE
  5
270
330
1F
100
AcDbEntity
  8
0
  6
Continuous
 62
     7
100
AcDbLine
 10
244.443210033512
 20
94.1114128286419
 30
0.0
 11
244.4432100335121
 21
92.59598268367057
 31
0.0
  0
LINE
  5
271
330
1F
100
AcDbEntity
  8
0
  6
Continuous
 62
     7
100
AcDbLine
 10
244.4432100335117
 20
96.0959826836667
 30
0.0
 11
244.4432100335117
 21
94.68788370814235
 31
0.0
  0
LINE
  5
272
330
1F
100
AcDbEntity
  8
0
  6
Continuous
 62
     7
100
AcDbLine
 10
244.4432100335117
 20
94.68788370814235
 30
0.0
 11
244.443210033512
 21
94.1114128286419
 31
0.0
  0
LINE
  5
273
330
1F
100
AcDbEntity
  8
0
  6
Continuous
 62
     7
100
AcDbLine
 10
244.4432100335117
 20
96.11969965030306
 30
0.0
 11
244.4432100335117
 21
96.0959826836667
 31
0.0
  0
LINE
  5
274
330
1F
100
AcDbEntity
  8
0
  6
Continuous
 62
     7
100
AcDbLine
 10
244.4432100335117
 20
96.12444304363038
 30
0.0
 11
244.4432100335117
 21
96.11969965030306
 31
0.0
  0
LINE
  5
275
330
1F
100
AcDbEntity
  8
0
  6
Continuous
 62
     7
100
AcDbLine
 10
244.44321003351
 20
111.0959826836667
 30
0.0
 11
244.44321003351
 21
109.6724975957357
 31
0.0
  0
LINE
  5
276
330
1F
100
AcDbEntity
  8
0
  6
Continuous
 62
     7
100
AcDbLine
 10
244.44321003351
 20
111.0959826836667
 30
0.0
 11
238.94321003351
 21
111.0959826836661
 31
0.0
  0
LINE
  5
277
330
1F
100
AcDbEntity
  8
0
  6
Continuous
 62
     7
100
AcDbLine
 10
244.4432100335125
 20
89.0959826836716
 30
0.0
 11
244.4432100335124
 21
89.84404686341827
 31
0.0
  0
LINE
  5
278
330
1F
100
AcDbEntity
  8
0
  6
Continuous
 62
     7
100
AcDbLine
 10
244.4432100335125
 20
88.39598268366439
 30
0.0
 11
244.4432100335125
 21
88.97513433968385
 31
0.0
  0
LINE
  5
279
330
1F
100
AcDbEntity
  8
0
  6
Continuous
 62
     7
100
AcDbLine
 10
244.4432100335125
 20
87.73982222521187
 30
0.0
 11
244.4432100335125
 21
87.89455001890889
 31
0.0
  0
LINE
  5
27A
330
1F
100
AcDbEntity
  8
0
  6
Continuous
 62
     7
100
AcDbLine
 10
244.4432100335125
 20
87.89455001890889
 30
0.0
 11
244.4432100335125
 21
88.18076817824107
 31
0.0
  0
LINE
  5
27B
330
1F
100
AcDbEntity
  8
0
  6
Continuous
 62
     7
100
AcDbLine
 10
244.4432100335125
 20
88.21822883758267
 30
0.0
 11
244.4432100335125
 21
88.39598268366439
 31
0.0
  0
LINE
  5
27C
330
1F
100
AcDbEntity
  8
0
  6
Continuous
 62
     7
100
AcDbLine
 10
244.4432100335125
 20
88.18076817824107
 30
0.0
 11
244.4432100335125
 21
88.21822883758267
 31
0.0
  0
LINE
  5
27D
330
1F
100
AcDbEntity
  8
0
  6
Continuous
 62
     7
100
AcDbLine
 10
244.4432100335125
 20
88.97513433968385
 30
0.0
 11
244.4432100335125
 21
89.0459826836713
 31
0.0
  0
LINE
  5
27E
330
1F
100
AcDbEntity
  8
0
  6
Continuous
 62
     7
100
AcDbLine
 10
244.4432100335125
 20
89.0459826836713
 30
0.0
 11
244.4432100335125
 21
89.0959826836716
 31
0.0
  0
LINE
  5
27F
330
1F
100
AcDbEntity
  8
0
  6
Continuous
 62
     7
100
AcDbLine
 10
244.4432100335126
 20
87.39598268366575
 30
0.0
 11
244.4432100335125
 21
87.73982222521187
 31
0.0
  0
LINE
  5
280
330
1F
100
AcDbEntity
  8
0
  6
Continuous
 62
     7
100
AcDbLine
 10
244.4432100335122
 20
91.25910164429564
 30
0.0
 11
244.4432100335122
 21
91.68832107439749
 31
0.0
  0
LINE
  5
281
330
1F
100
AcDbEntity
  8
0
  6
Continuous
 62
     7
100
AcDbLine
 10
244.4432100335122
 20
91.77661583368348
 30
0.0
 11
244.4432100335121
 21
92.07986176709358
 31
0.0
  0
LINE
  5
282
330
1F
100
AcDbEntity
  8
0
  6
Continuous
 62
     7
100
AcDbLine
 10
244.4432100335124
 20
90.63136128604168
 30
0.0
 11
244.4432100335122
 21
91.17819994485814
 31
0.0
  0
LINE
  5
283
330
1F
100
AcDbEntity
  8
0
  6
Continuous
 62
     7
100
AcDbLine
 10
244.4432100335124
 20
89.90561301095079
 30
0.0
 11
244.4432100335124
 21
90.55942730600776
 31
0.0
  0
LINE
  5
284
330
1F
100
AcDbEntity
  8
0
  6
Continuous
 62
     7
100
AcDbLine
 10
244.4432100335121
 20
92.47917463046338
 30
0.0
 11
244.4432100335121
 21
92.49598268367055
 31
0.0
  0
LINE
  5
285
330
1F
100
AcDbEntity
  8
0
  6
Continuous
 62
     7
100
AcDbLine
 10
244.4432100335121
 20
92.44301588880734
 30
0.0
 11
244.4432100335121
 21
92.47917463046338
 31
0.0
  0
LINE
  5
286
330
1F
100
AcDbEntity
  8
0
  6
Continuous
 62
     7
100
AcDbLine
 10
244.4432100335121
 20
92.17383102917216
 30
0.0
 11
244.4432100335121
 21
92.345201128734
 31
0.0
  0
LINE
  5
287
330
1F
100
AcDbEntity
  8
0
  6
Continuous
 62
     7
100
AcDbLine
 10
244.4432100335121
 20
92.07986176709358
 30
0.0
 11
244.4432100335121
 21
92.17383102917216
 31
0.0
  0
LINE
  5
288
330
1F
100
AcDbEntity
  8
0
  6
Continuous
 62
     7
100
AcDbLine
 10
244.4432100335122
 20
91.17819994485814
 30
0.0
 11
244.4432100335122
 21
91.25910164429564
 31
0.0
  0
LINE
  5
289
330
1F
100
AcDbEntity
  8
0
  6
Continuous
 62
     7
100
AcDbLine
 10
244.4432100335124
 20
89.84404686341827
 30
0.0
 11
244.4432100335124
 21
89.90561301095079
 31
0.0
  0
LINE
  5
28A
330
1F
100
AcDbEntity
  8
0
  6
Continuous
 62
     7
100
AcDbLine
 10
244.4432100335121
 20
92.49598268367055
 30
0.0
 11
244.4432100335121
 21
92.57893103548935
 31
0.0
  0
LINE
  5
28B
330
1F
100
AcDbEntity
  8
0
  6
Continuous
 62
     7
100
AcDbLine
 10
244.4432100335124
 20
90.55942730600776
 30
0.0
 11
244.4432100335124
 21
90.63136128604168
 31
0.0
  0
LINE
  5
28C
330
1F
100
AcDbEntity
  8
0
  6
Continuous
 62
     7
100
AcDbLine
 10
244.4432100335121
 20
92.59598268367057
 30
0.0
 11
244.4432100335121
 21
92.57893103548935
 31
0.0
  0
LINE
  5
28D
330
1F
100
AcDbEntity
  8
0
  6
Continuous
 62
     7
100
AcDbLine
 10
244.4432100335121
 20
92.345201128734
 30
0.0
 11
244.4432100335121
 21
92.44301588880734
 31
0.0
  0
LINE
  5
28E
330
1F
100
AcDbEntity
  8
0
  6
Continuous
 62
     7
100
AcDbLine
 10
244.4432100335122
 20
91.68832107439749
 30
0.0
 11
244.4432100335122
 21
91.77661583368348
 31
0.0
  0
LINE
  5
28F
330
1F
100
AcDbEntity
  8
0
  6
Continuous
 62
     7
100
AcDbLine
 10
244.443210033513
 20
84.3804454400028
 30
0.0
 11
244.443210033513
 21
84.39781025776944
 31
0.0
  0
LINE
  5
290
330
1F
100
AcDbEntity
  8
0
  6
Continuous
 62
     7
100
AcDbLine
 10
244.443210033513
 20
84.07796480154553
 30
0.0
 11
244.443210033513
 21
84.3804454400028
 31
0.0
  0
LINE
  5
291
330
1F
100
AcDbEntity
  8
0
  6
Continuous
 62
     7
100
AcDbLine
 10
244.4432100335131
 20
83.46376542248419
 30
0.0
 11
244.443210033513
 21
84.07796480154553
 31
0.0
  0
LINE
  5
292
330
1F
100
AcDbEntity
  8
0
  6
Continuous
 62
     7
100
AcDbLine
 10
244.4432100335131
 20
83.43286372304664
 30
0.0
 11
244.4432100335131
 21
83.46376542248419
 31
0.0
  0
LINE
  5
293
330
1F
100
AcDbEntity
  8
0
  6
Continuous
 62
     7
100
AcDbLine
 10
244.4432100335132
 20
82.59598268366796
 30
0.0
 11
244.4432100335131
 21
83.43286372304664
 31
0.0
  0
LINE
  5
294
330
1F
100
AcDbEntity
  8
0
  6
Continuous
 62
     7
100
AcDbLine
 10
244.4432100335133
 20
82.09598268367148
 30
0.0
 11
244.4432100335132
 21
82.52738465614766
 31
0.0
  0
LINE
  5
295
330
1F
100
AcDbEntity
  8
0
  6
Continuous
 62
     7
100
AcDbLine
 10
244.4432100335132
 20
82.57122177082658
 30
0.0
 11
244.4432100335132
 21
82.52738465614766
 31
0.0
  0
LINE
  5
296
330
1F
100
AcDbEntity
  8
0
  6
Continuous
 62
     7
100
AcDbLine
 10
244.4432100335132
 20
82.57122177082658
 30
0.0
 11
244.4432100335132
 21
82.59598268366796
 31
0.0
  0
LINE
  5
297
330
1F
100
AcDbEntity
  8
0
  6
Continuous
 62
     7
100
AcDbLine
 10
244.4432100335126
 20
87.28943595286898
 30
0.0
 11
244.4432100335126
 21
87.39598268366575
 31
0.0
  0
LINE
  5
298
330
1F
100
AcDbEntity
  8
0
  6
Continuous
 62
     7
100
AcDbLine
 10
244.443210033513
 20
84.39781025776944
 30
0.0
 11
244.4432100335129
 21
84.88844268366694
 31
0.0
  0
LINE
  5
299
330
1F
100
AcDbEntity
  8
0
  6
Continuous
 62
     7
100
AcDbLine
 10
244.4432100335129
 20
84.88844268366694
 30
0.0
 11
244.4432100335129
 21
84.89598268366518
 31
0.0
  0
LINE
  5
29A
330
1F
100
AcDbEntity
  8
0
  6
Continuous
 62
     7
100
AcDbLine
 10
244.4432100335129
 20
86.32768192654487
 30
0.0
 11
244.4432100335126
 21
87.265243763309
 31
0.0
  0
LINE
  5
29B
330
1F
100
AcDbEntity
  8
0
  6
Continuous
 62
     7
100
AcDbLine
 10
244.4432100335129
 20
84.89598268366518
 30
0.0
 11
244.4432100335129
 21
85.35168620675375
 31
0.0
  0
LINE
  5
29C
330
1F
100
AcDbEntity
  8
0
  6
Continuous
 62
     7
100
AcDbLine
 10
244.4432100335129
 20
85.35168620675375
 30
0.0
 11
244.4432100335129
 21
85.35517615642408
 31
0.0
  0
LINE
  5
29D
330
1F
100
AcDbEntity
  8
0
  6
Continuous
 62
     7
100
AcDbLine
 10
244.4432100335129
 20
85.58212601718537
 30
0.0
 11
244.4432100335129
 21
86.14898585551401
 31
0.0
  0
LINE
  5
29E
330
1F
100
AcDbEntity
  8
0
  6
Continuous
 62
     7
100
AcDbLine
 10
244.4432100335129
 20
85.35517615642408
 30
0.0
 11
244.4432100335129
 21
85.58212601718537
 31
0.0
  0
LINE
  5
29F
330
1F
100
AcDbEntity
  8
0
  6
Continuous
 62
     7
100
AcDbLine
 10
244.4432100335129
 20
86.14898585551401
 30
0.0
 11
244.4432100335129
 21
86.31722908021806
 31
0.0
  0
LINE
  5
2A0
330
1F
100
AcDbEntity
  8
0
  6
Continuous
 62
     7
100
AcDbLine
 10
244.4432100335129
 20
86.31722908021806
 30
0.0
 11
244.4432100335129
 21
86.32768192654487
 31
0.0
  0
LINE
  5
2A1
330
1F
100
AcDbEntity
  8
0
  6
Continuous
 62
     7
100
AcDbLine
 10
244.4432100335133
 20
81.73755164972312
 30
0.0
 11
244.4432100335133
 21
82.09598268367148
 31
0.0
  0
LINE
  5
2A2
330
1F
100
AcDbEntity
  8
0
  6
Continuous
 62
     7
100
AcDbLine
 10
244.4432100335133
 20
81.68163235937601
 30
0.0
 11
244.4432100335133
 21
81.73755164972312
 31
0.0
  0
LINE
  5
2A3
330
1F
100
AcDbEntity
  8
0
  6
Continuous
 62
     7
100
AcDbLine
 10
244.4432100335126
 20
87.265243763309
 30
0.0
 11
244.4432100335126
 21
87.28943595286898
 31
0.0
  0
LINE
  5
2A4
330
1F
100
AcDbEntity
  8
0
  6
Continuous
 62
     7
100
AcDbLine
 10
244.4432100335134
 20
80.978981499795
 30
0.0
 11
244.4432100335133
 21
81.68163235937601
 31
0.0
  0
LINE
  5
2A5
330
1F
100
AcDbEntity
  8
0
  6
Continuous
 62
     7
100
AcDbLine
 10
244.4432100335134
 20
80.978981499795
 30
0.0
 11
244.4432100335134
 21
80.91206843915899
 31
0.0
  0
LINE
  5
2A6
330
1F
100
AcDbEntity
  8
0
  6
Continuous
 62
     7
100
AcDbLine
 10
244.4432100335134
 20
80.23367158183817
 30
0.0
 11
244.4432100335134
 21
80.31027602615018
 31
0.0
  0
LINE
  5
2A7
330
1F
100
AcDbEntity
  8
0
  6
Continuous
 62
     7
100
AcDbLine
 10
244.4432100335134
 20
80.31027602615018
 30
0.0
 11
244.4432100335134
 21
80.91206843915899
 31
0.0
  0
LINE
  5
2A8
330
1F
100
AcDbEntity
  8
0
  6
Continuous
 62
     7
100
AcDbLine
 10
244.4432100335134
 20
79.74445082019162
 30
0.0
 11
244.4432100335134
 21
80.23367158183817
 31
0.0
  0
LINE
  5
2A9
330
1F
100
AcDbEntity
  8
0
  6
Continuous
 62
     7
100
AcDbLine
 10
244.4432100335137
 20
79.20116448017257
 30
0.0
 11
244.4432100335137
 21
79.29251902593688
 31
0.0
  0
LINE
  5
2AA
330
1F
100
AcDbEntity
  8
0
  6
Continuous
 62
     7
100
AcDbLine
 10
244.4432100335137
 20
79.29251902593688
 30
0.0
 11
244.4432100335134
 21
79.65964601057584
 31
0.0
  0
LINE
  5
2AB
330
1F
100
AcDbEntity
  8
0
  6
Continuous
 62
     7
100
AcDbLine
 10
244.4432100335134
 20
79.74445082019162
 30
0.0
 11
244.4432100335134
 21
79.65964601057584
 31
0.0
  0
LINE
  5
2AC
330
1F
100
AcDbEntity
  8
0
  6
Continuous
 62
     7
100
AcDbLine
 10
244.4432100335137
 20
78.96327698169631
 30
0.0
 11
244.4432100335137
 21
79.20116448017257
 31
0.0
  0
LINE
  5
2AD
330
1F
100
AcDbEntity
  8
0
  6
Continuous
 62
     7
100
AcDbLine
 10
244.4432100335137
 20
78.7631330093538
 30
0.0
 11
244.4432100335137
 21
78.86715081210247
 31
0.0
  0
LINE
  5
2AE
330
1F
100
AcDbEntity
  8
0
  6
Continuous
 62
     7
100
AcDbLine
 10
244.4432100335137
 20
78.66410620247956
 30
0.0
 11
244.4432100335137
 21
78.69598268367048
 31
0.0
  0
LINE
  5
2AF
330
1F
100
AcDbEntity
  8
0
  6
Continuous
 62
     7
100
AcDbLine
 10
244.4432100335137
 20
78.69598268367048
 30
0.0
 11
244.4432100335137
 21
78.7631330093538
 31
0.0
  0
LINE
  5
2B0
330
1F
100
AcDbEntity
  8
0
  6
Continuous
 62
     7
100
AcDbLine
 10
244.4432100335137
 20
78.96327698169631
 30
0.0
 11
244.4432100335137
 21
78.86715081210247
 31
0.0
  0
LINE
  5
2B1
330
1F
100
AcDbEntity
  8
0
  6
Continuous
 62
     7
100
AcDbLine
 10
244.4432100335137
 20
78.59598268367046
 30
0.0
 11
244.4432100335137
 21
78.66410620247956
 31
0.0
  0
LINE
  5
2B2
330
1F
100
AcDbEntity
  8
0
  6
Continuous
 62
     7
100
AcDbLine
 10
238.9432100335137
 20
78.59598268366909
 30
0.0
 11
235.9432100335137
 21
78.59598268366864
 31
0.0
  0
LINE
  5
2B3
330
1F
100
AcDbEntity
  8
0
  6
Continuous
 62
     7
100
AcDbLine
 10
244.4432100335137
 20
78.59598268367046
 30
0.0
 11
238.9432100335137
 21
78.59598268366909
 31
0.0
  0
LINE
  5
2B4
330
1F
100
AcDbEntity
  8
0
  6
Continuous
 62
     7
100
AcDbLine
 10
218.1278887852445
 20
89.34598268366818
 30
0.0
 11
222.4580158041673
 21
81.84598268366926
 31
0.0
  0
LINE
  5
2B5
330
1F
100
AcDbEntity
  8
0
  6
Continuous
 62
     7
100
AcDbLine
 10
222.4580158041673
 20
82.74598268366918
 30
0.0
 11
218.6475040275152
 21
89.34598268366818
 31
0.0
  0
LINE
  5
2B6
330
1F
100
AcDbEntity
  8
0
  6
Continuous
 62
     7
100
AcDbLine
 10
215.5875476008096
 20
89.34598268366784
 30
0.0
 11
212.2677835529701
 21
83.59598268366796
 31
0.0
  0
LINE
  5
2B7
330
1F
100
AcDbEntity
  8
0
  6
Continuous
 62
     7
100
AcDbLine
 10
212.0079759318347
 20
84.04598268366811
 30
0.0
 11
215.0679323585391
 21
89.34598268366778
 31
0.0
  0
LINE
  5
2B8
330
1F
100
AcDbEntity
  8
0
  6
Continuous
 62
     7
100
AcDbLine
 10
219.7444695389752
 20
89.34598268366875
 30
0.0
 11
222.458015804167
 21
84.64598268366916
 31
0.0
  0
LINE
  5
2B9
330
1F
100
AcDbEntity
  8
0
  6
Continuous
 62
     7
100
AcDbLine
 10
213.9709668470794
 20
84.74598268366805
 30
0.0
 11
216.6267780853512
 21
89.34598268366841
 31
0.0
  0
LINE
  5
2BA
330
1F
100
AcDbEntity
  8
0
  6
Continuous
 62
     7
100
AcDbLine
 10
215.298872466216
 20
81.84598268366847
 30
0.0
 11
217.8392136506498
 21
86.24598268366861
 31
0.0
  0
LINE
  5
2BB
330
1F
100
AcDbEntity
  8
0
  6
Continuous
 62
     7
100
AcDbLine
 10
216.857718193028
 20
81.84598268366864
 30
0.0
 11
219.3980593774618
 21
86.24598268366879
 31
0.0
  0
LINE
  5
2BC
330
1F
100
AcDbEntity
  8
0
  6
Continuous
 62
     7
100
AcDbLine
 10
218.3588288929203
 20
86.24598268366861
 30
0.0
 11
215.8184877084867
 21
81.84598268366858
 31
0.0
  0
LINE
  5
2BD
330
1F
100
AcDbEntity
  8
0
  6
Continuous
 62
     7
100
AcDbLine
 10
219.6578669985971
 20
85.7959826836688
 30
0.0
 11
217.3773334352987
 21
81.84598268366864
 31
0.0
  0
LINE
  5
2BE
330
1F
100
AcDbEntity
  8
0
  6
Continuous
 62
     7
100
AcDbLine
 10
222.4580158041669
 20
85.54598268366908
 30
0.0
 11
220.2640847812461
 21
89.34598268366841
 31
0.0
  0
LINE
  5
2BF
330
1F
100
AcDbEntity
  8
0
  6
Continuous
 62
     7
100
AcDbLine
 10
194.9432100335118
 20
95.48983280791134
 30
0.0
 11
235.9432100335117
 21
95.489832807916
 31
0.0
  0
LINE
  5
2C0
330
1F
100
AcDbEntity
  8
0
  6
Continuous
 62
     7
100
AcDbLine
 10
186.4432100335121
 20
92.59598268366398
 30
0.0
 11
244.4432100335121
 21
92.59598268367057
 31
0.0
  0
LINE
  5
2C1
330
1F
100
AcDbEntity
  8
0
  6
Continuous
 62
     7
100
AcDbLine
 10
238.9432100335112
 20
101.5897326836661
 30
0.0
 11
238.9432100335112
 21
101.1959826836661
 31
0.0
  0
LINE
  5
2C2
330
1F
100
AcDbEntity
  8
0
  6
Continuous
 62
     7
100
AcDbLine
 10
244.4432100335121
 20
92.57893103548935
 30
0.0
 11
186.4432100335121
 21
92.57893103548275
 31
0.0
  0
LINE
  5
2C3
330
1F
100
AcDbEntity
  8
0
  6
Continuous
 62
     7
100
AcDbLine
 10
244.4432100335132
 20
82.57122177082658
 30
0.0
 11
222.9580158041673
 21
82.57122177082408
 31
0.0
  0
LINE
  5
2C4
330
1F
100
AcDbEntity
  8
0
  6
Continuous
 62
     7
100
AcDbLine
 10
222.958015804167
 20
83.46376542248169
 30
0.0
 11
222.958015804167
 21
84.38044544000041
 31
0.0
  0
LINE
  5
2C5
330
1F
100
AcDbEntity
  8
0
  6
Continuous
 62
     7
100
AcDbLine
 10
222.9580158041671
 20
83.43286372304425
 30
0.0
 11
222.958015804167
 21
83.46376542248169
 31
0.0
  0
LINE
  5
2C6
330
1F
100
AcDbEntity
  8
0
  6
Continuous
 62
     7
100
AcDbLine
 10
207.9284042628591
 20
83.46376542247998
 30
0.0
 11
207.9284042628592
 21
84.38044543999871
 31
0.0
  0
LINE
  5
2C7
330
1F
100
AcDbEntity
  8
0
  6
Continuous
 62
     7
100
AcDbLine
 10
222.9580158041671
 20
83.43286372304425
 30
0.0
 11
244.4432100335131
 21
83.43286372304664
 31
0.0
  0
LINE
  5
2C8
330
1F
100
AcDbEntity
  8
0
  6
Continuous
 62
     7
100
AcDbLine
 10
222.958015804167
 20
84.38044544000041
 30
0.0
 11
244.443210033513
 21
84.3804454400028
 31
0.0
  0
LINE
  5
2C9
330
1F
100
AcDbEntity
  8
0
  6
Continuous
 62
     7
100
AcDbLine
 10
186.443210033513
 20
84.38044543999621
 30
0.0
 11
207.9284042628592
 21
84.38044543999871
 31
0.0
  0
LINE
  5
2CA
330
1F
100
AcDbEntity
  8
0
  6
Continuous
 62
     7
100
AcDbLine
 10
207.9284042628592
 20
84.38044543999871
 30
0.0
 11
207.9284042628592
 21
84.39781025776534
 31
0.0
  0
LINE
  5
2CB
330
1F
100
AcDbEntity
  8
0
  6
Continuous
 62
     7
100
AcDbLine
 10
222.958015804167
 20
84.39781025776705
 30
0.0
 11
222.958015804167
 21
84.38044544000041
 31
0.0
  0
LINE
  5
2CC
330
1F
100
AcDbEntity
  8
0
  6
Continuous
 62
     7
100
AcDbLine
 10
207.9284042628593
 20
82.57122177082238
 30
0.0
 11
207.9284042628594
 21
82.52738465614351
 31
0.0
  0
LINE
  5
2CD
330
1F
100
AcDbEntity
  8
0
  6
Continuous
 62
     7
100
AcDbLine
 10
186.4432100335133
 20
82.52738465614107
 30
0.0
 11
207.9284042628594
 21
82.52738465614351
 31
0.0
  0
LINE
  5
2CE
330
1F
100
AcDbEntity
  8
0
  6
Continuous
 62
     7
100
AcDbLine
 10
222.9580158041673
 20
82.52738465614522
 30
0.0
 11
222.9580158041673
 21
82.57122177082408
 31
0.0
  0
LINE
  5
2CF
330
1F
100
AcDbEntity
  8
0
  6
Continuous
 62
     7
100
AcDbLine
 10
222.9580158041673
 20
82.52738465614522
 30
0.0
 11
244.4432100335132
 21
82.52738465614766
 31
0.0
  0
LINE
  5
2D0
330
1F
100
AcDbEntity
  8
0
  6
Continuous
 62
     7
100
AcDbLine
 10
222.9580158041673
 20
81.73755164972061
 30
0.0
 11
222.9580158041673
 21
82.52738465614522
 31
0.0
  0
LINE
  5
2D1
330
1F
100
AcDbEntity
  8
0
  6
Continuous
 62
     7
100
AcDbLine
 10
222.9580158041673
 20
81.68163235937351
 30
0.0
 11
222.9580158041673
 21
81.73755164972061
 31
0.0
  0
LINE
  5
2D2
330
1F
100
AcDbEntity
  8
0
  6
Continuous
 62
     7
100
AcDbLine
 10
212.7585312817814
 20
81.84598268366818
 30
0.0
 11
214.5432100335133
 21
81.84598268366841
 31
0.0
  0
LINE
  5
2D3
330
1F
100
AcDbEntity
  8
0
  6
Continuous
 62
     7
100
AcDbLine
 10
214.5432100335132
 20
84.03713695685616
 30
0.0
 11
214.5432100335133
 21
81.84598268366841
 31
0.0
  0
LINE
  5
2D4
330
1F
100
AcDbEntity
  8
0
  6
Continuous
 62
     7
100
AcDbLine
 10
215.298872466216
 20
81.84598268366847
 30
0.0
 11
215.8184877084867
 21
81.84598268366858
 31
0.0
  0
LINE
  5
2D5
330
1F
100
AcDbEntity
  8
0
  6
Continuous
 62
     7
100
AcDbLine
 10
216.857718193028
 20
81.84598268366864
 30
0.0
 11
217.3773334352987
 21
81.84598268366864
 31
0.0
  0
LINE
  5
2D6
330
1F
100
AcDbEntity
  8
0
  6
Continuous
 62
     7
100
AcDbLine
 10
218.4165639198399
 20
81.84598268366875
 30
0.0
 11
222.4580158041673
 21
81.84598268366926
 31
0.0
  0
LINE
  5
2D7
330
1F
100
AcDbEntity
  8
0
  6
Continuous
 62
     7
100
AcDbLine
 10
222.9580158041673
 20
81.68163235937351
 30
0.0
 11
244.4432100335133
 21
81.68163235937601
 31
0.0
  0
LINE
  5
2D8
330
1F
100
AcDbEntity
  8
0
  6
Continuous
 62
     7
100
AcDbLine
 10
186.4432100335134
 20
80.9789814997884
 30
0.0
 11
244.4432100335134
 21
80.978981499795
 31
0.0
  0
LINE
  5
2D9
330
1F
100
AcDbEntity
  8
0
  6
Continuous
 62
     7
100
AcDbLine
 10
207.9284042628588
 20
87.28943595286484
 30
0.0
 11
186.4432100335127
 21
87.28943595286233
 31
0.0
  0
LINE
  5
2DA
330
1F
100
AcDbEntity
  8
0
  6
Continuous
 62
     7
100
AcDbLine
 10
207.9284042628588
 20
87.26524376330491
 30
0.0
 11
186.4432100335127
 21
87.26524376330241
 31
0.0
  0
LINE
  5
2DB
330
1F
100
AcDbEntity
  8
0
  6
Continuous
 62
     7
100
AcDbLine
 10
244.4432100335126
 20
87.265243763309
 30
0.0
 11
222.9580158041667
 21
87.26524376330661
 31
0.0
  0
LINE
  5
2DC
330
1F
100
AcDbEntity
  8
0
  6
Continuous
 62
     7
100
AcDbLine
 10
244.4432100335126
 20
87.28943595286898
 30
0.0
 11
222.9580158041667
 21
87.28943595286654
 31
0.0
  0
LINE
  5
2DD
330
1F
100
AcDbEntity
  8
0
  6
Continuous
 62
     7
100
AcDbLine
 10
222.9580158041667
 20
87.28943595286654
 30
0.0
 11
222.9580158041665
 21
88.18076817823868
 31
0.0
  0
LINE
  5
2DE
330
1F
100
AcDbEntity
  8
0
  6
Continuous
 62
     7
100
AcDbLine
 10
207.9284042628588
 20
87.26524376330491
 30
0.0
 11
207.9284042628588
 21
87.28943595286484
 31
0.0
  0
LINE
  5
2DF
330
1F
100
AcDbEntity
  8
0
  6
Continuous
 62
     7
100
AcDbLine
 10
221.3610502927064
 20
89.34598268366847
 30
0.0
 11
222.4580158041666
 21
87.44598268366911
 31
0.0
  0
LINE
  5
2E0
330
1F
100
AcDbEntity
  8
0
  6
Continuous
 62
     7
100
AcDbLine
 10
244.4432100335125
 20
88.21822883758267
 30
0.0
 11
222.9580158041666
 21
88.21822883758028
 31
0.0
  0
LINE
  5
2E1
330
1F
100
AcDbEntity
  8
0
  6
Continuous
 62
     7
100
AcDbLine
 10
198.016339869732
 20
89.00332769115846
 30
0.0
 11
190.8740389610565
 21
89.00332769115766
 31
0.0
  0
LINE
  5
2E2
330
1F
100
AcDbEntity
  8
0
  6
Continuous
 62
     7
100
AcDbLine
 10
232.870080197293
 20
89.0033276911625
 30
0.0
 11
240.0123811059684
 21
89.00332769116329
 31
0.0
  0
LINE
  5
2E3
330
1F
100
AcDbEntity
  8
0
  6
Continuous
 62
     7
100
AcDbLine
 10
222.9580158041665
 20
89.09598268366886
 30
0.0
 11
222.9580158041665
 21
89.0459826836688
 31
0.0
  0
LINE
  5
2E4
330
1F
100
AcDbEntity
  8
0
  6
Continuous
 62
     7
100
AcDbLine
 10
190.9672900662386
 20
89.04598268366516
 30
0.0
 11
190.8740389610565
 21
89.00332769115766
 31
0.0
  0
LINE
  5
2E5
330
1F
100
AcDbEntity
  8
0
  6
Continuous
 62
     7
100
AcDbLine
 10
190.9981186074895
 20
89.06008429879887
 30
0.0
 11
190.9672900662386
 21
89.04598268366516
 31
0.0
  0
LINE
  5
2E6
330
1F
100
AcDbEntity
  8
0
  6
Continuous
 62
     7
100
AcDbLine
 10
239.9191300007864
 20
89.04598268367079
 30
0.0
 11
240.0123811059684
 21
89.00332769116329
 31
0.0
  0
LINE
  5
2E7
330
1F
100
AcDbEntity
  8
0
  6
Continuous
 62
     7
100
AcDbLine
 10
239.8883014595355
 20
89.06008429880438
 30
0.0
 11
239.9191300007864
 21
89.04598268367079
 31
0.0
  0
LINE
  5
2E8
330
1F
100
AcDbEntity
  8
0
  6
Continuous
 62
     7
100
AcDbLine
 10
232.7763252943
 20
89.04598268366988
 30
0.0
 11
232.870080197293
 21
89.0033276911625
 31
0.0
  0
LINE
  5
2E9
330
1F
100
AcDbEntity
  8
0
  6
Continuous
 62
     7
100
AcDbLine
 10
232.7453301989739
 20
89.06008429880359
 30
0.0
 11
232.7763252943
 21
89.04598268366988
 31
0.0
  0
LINE
  5
2EA
330
1F
100
AcDbEntity
  8
0
  6
Continuous
 62
     7
100
AcDbLine
 10
198.1410898680511
 20
89.06008429879967
 30
0.0
 11
190.9981186074895
 21
89.06008429879887
 31
0.0
  0
LINE
  5
2EB
330
1F
100
AcDbEntity
  8
0
  6
Continuous
 62
     7
100
AcDbLine
 10
207.9284042628586
 20
89.04598268366709
 30
0.0
 11
207.9284042628586
 21
89.09598268366716
 31
0.0
  0
LINE
  5
2EC
330
1F
100
AcDbEntity
  8
0
  6
Continuous
 62
     7
100
AcDbLine
 10
232.7453301989739
 20
89.06008429880359
 30
0.0
 11
239.8883014595355
 21
89.06008429880438
 31
0.0
  0
LINE
  5
2ED
330
1F
100
AcDbEntity
  8
0
  6
Continuous
 62
     7
100
AcDbLine
 10
217.5505385160544
 20
89.24598268366839
 30
0.0
 11
217.0886583007029
 21
88.4459826836682
 31
0.0
  0
LINE
  5
2EE
330
1F
100
AcDbEntity
  8
0
  6
Continuous
 62
     7
100
AcDbLine
 10
217.5505385160544
 20
89.24598268366839
 30
0.0
 11
217.6660085698928
 21
89.24598268366861
 31
0.0
  0
LINE
  5
2EF
330
1F
100
AcDbEntity
  8
0
  6
Continuous
 62
     7
100
AcDbLine
 10
222.4580158041667
 20
88.34598268366875
 30
0.0
 11
221.8806655349769
 21
89.34598268366898
 31
0.0
  0
LINE
  5
2F0
330
1F
100
AcDbEntity
  8
0
  6
Continuous
 62
     7
100
AcDbLine
 10
222.4580158041665
 20
89.34598268366909
 30
0.0
 11
222.4580158041667
 21
88.34598268366875
 31
0.0
  0
LINE
  5
2F1
330
1F
100
AcDbEntity
  8
0
  6
Continuous
 62
     7
100
AcDbLine
 10
222.9580158041665
 20
88.18076817823868
 30
0.0
 11
222.9580158041666
 21
88.21822883758028
 31
0.0
  0
LINE
  5
2F2
330
1F
100
AcDbEntity
  8
0
  6
Continuous
 62
     7
100
AcDbLine
 10
239.9191300007864
 20
89.04598268367079
 30
0.0
 11
244.4432100335125
 21
89.0459826836713
 31
0.0
  0
LINE
  5
2F3
330
1F
100
AcDbEntity
  8
0
  6
Continuous
 62
     7
100
AcDbLine
 10
244.4432100335125
 20
89.0959826836716
 30
0.0
 11
222.9580158041665
 21
89.09598268366886
 31
0.0
  0
LINE
  5
2F4
330
1F
100
AcDbEntity
  8
0
  6
Continuous
 62
     7
100
AcDbLine
 10
244.4432100335124
 20
89.90561301095079
 30
0.0
 11
222.9580158041664
 21
89.90561301094834
 31
0.0
  0
LINE
  5
2F5
330
1F
100
AcDbEntity
  8
0
  6
Continuous
 62
     7
100
AcDbLine
 10
190.9672900662386
 20
89.04598268366516
 30
0.0
 11
186.4432100335125
 21
89.0459826836647
 31
0.0
  0
LINE
  5
2F6
330
1F
100
AcDbEntity
  8
0
  6
Continuous
 62
     7
100
AcDbLine
 10
207.9284042628586
 20
89.04598268366709
 30
0.0
 11
198.1100947727249
 21
89.04598268366595
 31
0.0
  0
LINE
  5
2F7
330
1F
100
AcDbEntity
  8
0
  6
Continuous
 62
     7
100
AcDbLine
 10
222.9580158041665
 20
89.09598268366886
 30
0.0
 11
222.9580158041663
 21
89.84404686341577
 31
0.0
  0
LINE
  5
2F8
330
1F
100
AcDbEntity
  8
0
  6
Continuous
 62
     7
100
AcDbLine
 10
222.9580158041663
 20
89.84404686341577
 30
0.0
 11
222.9580158041664
 21
89.90561301094834
 31
0.0
  0
LINE
  5
2F9
330
1F
100
AcDbEntity
  8
0
  6
Continuous
 62
     7
100
AcDbLine
 10
221.8806655349769
 20
89.34598268366898
 30
0.0
 11
222.4580158041665
 21
89.34598268366909
 31
0.0
  0
LINE
  5
2FA
330
1F
100
AcDbEntity
  8
0
  6
Continuous
 62
     7
100
AcDbLine
 10
215.0679323585391
 20
89.34598268366778
 30
0.0
 11
215.5875476008096
 21
89.34598268366784
 31
0.0
  0
LINE
  5
2FB
330
1F
100
AcDbEntity
  8
0
  6
Continuous
 62
     7
100
AcDbLine
 10
220.2640847812461
 20
89.34598268366841
 30
0.0
 11
221.3610502927064
 21
89.34598268366847
 31
0.0
  0
LINE
  5
2FC
330
1F
100
AcDbEntity
  8
0
  6
Continuous
 62
     7
100
AcDbLine
 10
218.6475040275152
 20
89.34598268366818
 30
0.0
 11
219.7444695389752
 21
89.34598268366875
 31
0.0
  0
LINE
  5
2FD
330
1F
100
AcDbEntity
  8
0
  6
Continuous
 62
     7
100
AcDbLine
 10
216.6267780853512
 20
89.34598268366841
 30
0.0
 11
218.1278887852445
 21
89.34598268366818
 31
0.0
  0
LINE
  5
2FE
330
1F
100
AcDbEntity
  8
0
  6
Continuous
 62
     7
100
AcDbLine
 10
244.4432100335129
 20
85.35168620675375
 30
0.0
 11
222.9580158041669
 21
85.35168620675137
 31
0.0
  0
LINE
  5
2FF
330
1F
100
AcDbEntity
  8
0
  6
Continuous
 62
     7
100
AcDbLine
 10
244.443210033513
 20
84.39781025776944
 30
0.0
 11
222.958015804167
 21
84.39781025776705
 31
0.0
  0
LINE
  5
300
330
1F
100
AcDbEntity
  8
0
  6
Continuous
 62
     7
100
AcDbLine
 10
222.9580158041669
 20
85.35168620675137
 30
0.0
 11
222.9580158041669
 21
85.35517615642158
 31
0.0
  0
LINE
  5
301
330
1F
100
AcDbEntity
  8
0
  6
Continuous
 62
     7
100
AcDbLine
 10
222.9580158041669
 20
86.32768192654248
 30
0.0
 11
244.4432100335129
 21
86.32768192654487
 31
0.0
  0
LINE
  5
302
330
1F
100
AcDbEntity
  8
0
  6
Continuous
 62
     7
100
AcDbLine
 10
222.9580158041669
 20
85.35517615642158
 30
0.0
 11
222.9580158041667
 21
86.31722908021567
 31
0.0
  0
LINE
  5
303
330
1F
100
AcDbEntity
  8
0
  6
Continuous
 62
     7
100
AcDbLine
 10
215.4432100335129
 20
85.59598268366727
 30
0.0
 11
215.4432100335129
 21
84.98900980963276
 31
0.0
  0
LINE
  5
304
330
1F
100
AcDbEntity
  8
0
  6
Continuous
 62
     7
100
AcDbLine
 10
215.4432100335129
 20
84.98900980963276
 30
0.0
 11
215.4432100335129
 21
84.78030824078468
 31
0.0
  0
LINE
  5
305
330
1F
100
AcDbEntity
  8
0
  6
Continuous
 62
     7
100
AcDbLine
 10
217.3195984083791
 20
87.14598268366825
 30
0.0
 11
215.4432100335133
 21
83.89598268366848
 31
0.0
  0
LINE
  5
306
330
1F
100
AcDbEntity
  8
0
  6
Continuous
 62
     7
100
AcDbLine
 10
219.3980593774618
 20
86.24598268366879
 30
0.0
 11
217.6660085698928
 21
89.24598268366861
 31
0.0
  0
LINE
  5
307
330
1F
100
AcDbEntity
  8
0
  6
Continuous
 62
     7
100
AcDbLine
 10
217.0886583007029
 20
88.4459826836682
 30
0.0
 11
218.3588288929203
 21
86.24598268366861
 31
0.0
  0
LINE
  5
308
330
1F
100
AcDbEntity
  8
0
  6
Continuous
 62
     7
100
AcDbLine
 10
222.9580158041667
 20
86.31722908021567
 30
0.0
 11
222.9580158041669
 21
86.32768192654248
 31
0.0
  0
LINE
  5
309
330
1F
100
AcDbEntity
  8
0
  6
Continuous
 62
     7
100
AcDbLine
 10
222.9580158041665
 20
89.0459826836688
 30
0.0
 11
232.7763252943
 21
89.04598268366988
 31
0.0
  0
LINE
  5
30A
330
1F
100
AcDbEntity
  8
0
  6
Continuous
 62
     7
100
AcDbLine
 10
222.9580158041667
 20
87.28943595286654
 30
0.0
 11
222.9580158041667
 21
87.26524376330661
 31
0.0
  0
LINE
  5
30B
330
1F
100
AcDbEntity
  8
0
  6
Continuous
 62
     7
100
AcDbLine
 10
222.4580158041666
 20
87.44598268366911
 30
0.0
 11
222.4580158041669
 21
85.54598268366908
 31
0.0
  0
LINE
  5
30C
330
1F
100
AcDbEntity
  8
0
  6
Continuous
 62
     7
100
AcDbLine
 10
217.8392136506498
 20
86.24598268366861
 30
0.0
 11
217.3195984083791
 21
87.14598268366825
 31
0.0
  0
LINE
  5
30D
330
1F
100
AcDbEntity
  8
0
  6
Continuous
 62
     7
100
AcDbLine
 10
215.4432100335129
 20
84.78030824078468
 30
0.0
 11
215.4432100335133
 21
83.89598268366848
 31
0.0
  0
LINE
  5
30E
330
1F
100
AcDbEntity
  8
0
  6
Continuous
 62
     7
100
AcDbLine
 10
222.458015804167
 20
84.64598268366916
 30
0.0
 11
222.4580158041673
 21
82.74598268366918
 31
0.0
  0
LINE
  5
30F
330
1F
100
AcDbEntity
  8
0
  6
Continuous
 62
     7
100
AcDbLine
 10
215.4432100335129
 20
85.59598268366727
 30
0.0
 11
213.9709668470794
 21
84.74598268366805
 31
0.0
  0
LINE
  5
310
330
1F
100
AcDbEntity
  8
0
  6
Continuous
 62
     7
100
AcDbLine
 10
220.1774822408679
 20
84.89598268366893
 30
0.0
 11
219.6578669985971
 21
85.7959826836688
 31
0.0
  0
LINE
  5
311
330
1F
100
AcDbEntity
  8
0
  6
Continuous
 62
     7
100
AcDbLine
 10
212.6456147693214
 20
82.94155982026206
 30
0.0
 11
214.5432100335132
 21
84.03713695685616
 31
0.0
  0
LINE
  5
312
330
1F
100
AcDbEntity
  8
0
  6
Continuous
 62
     7
100
AcDbLine
 10
218.4165639198399
 20
81.84598268366875
 30
0.0
 11
220.1774822408679
 21
84.89598268366893
 31
0.0
  0
LINE
  5
313
330
1F
100
AcDbEntity
  8
0
  6
Continuous
 62
     7
100
AcDbLine
 10
244.4432100335121
 20
92.44301588880734
 30
0.0
 11
186.4432100335121
 21
92.44301588880074
 31
0.0
  0
LINE
  5
314
330
1F
100
AcDbEntity
  8
0
  6
Continuous
 62
     7
100
AcDbLine
 10
244.4432100335124
 20
90.55942730600776
 30
0.0
 11
186.4432100335124
 21
90.55942730600117
 31
0.0
  0
LINE
  5
315
330
1F
100
AcDbEntity
  8
0
  6
Continuous
 62
     7
100
AcDbLine
 10
186.4432100335121
 20
92.34520112872741
 30
0.0
 11
244.4432100335121
 21
92.345201128734
 31
0.0
  0
LINE
  5
316
330
1F
100
AcDbEntity
  8
0
  6
Continuous
 62
     7
100
AcDbLine
 10
244.4432100335121
 20
92.17383102917216
 30
0.0
 11
186.4432100335122
 21
92.17383102916557
 31
0.0
  0
LINE
  5
317
330
1F
100
AcDbEntity
  8
0
  6
Continuous
 62
     7
100
AcDbLine
 10
186.4432100335122
 20
91.77661583367677
 30
0.0
 11
244.4432100335122
 21
91.77661583368348
 31
0.0
  0
LINE
  5
318
330
1F
100
AcDbEntity
  8
0
  6
Continuous
 62
     7
100
AcDbLine
 10
186.4432100335122
 20
91.6883210743909
 30
0.0
 11
244.4432100335122
 21
91.68832107439749
 31
0.0
  0
LINE
  5
319
330
1F
100
AcDbEntity
  8
0
  6
Continuous
 62
     7
100
AcDbLine
 10
186.4432100335122
 20
91.25910164428905
 30
0.0
 11
244.4432100335122
 21
91.25910164429564
 31
0.0
  0
LINE
  5
31A
330
1F
100
AcDbEntity
  8
0
  6
Continuous
 62
     7
100
AcDbLine
 10
186.4432100335123
 20
90.63136128603509
 30
0.0
 11
244.4432100335124
 21
90.63136128604168
 31
0.0
  0
LINE
  5
31B
330
1F
100
AcDbEntity
  8
0
  6
Continuous
 62
     7
100
AcDbLine
 10
186.4432100335134
 20
80.91206843915239
 30
0.0
 11
244.4432100335134
 21
80.91206843915899
 31
0.0
  0
LINE
  5
31C
330
1F
100
AcDbEntity
  8
0
  6
Continuous
 62
     7
100
AcDbLine
 10
244.4432100335134
 20
80.23367158183817
 30
0.0
 11
186.4432100335135
 21
80.23367158183157
 31
0.0
  0
LINE
  5
31D
330
1F
100
AcDbEntity
  8
0
  6
Continuous
 62
     7
100
AcDbLine
 10
186.4432100335135
 20
79.74445082018497
 30
0.0
 11
244.4432100335134
 21
79.74445082019162
 31
0.0
  0
LINE
  5
31E
330
1F
100
AcDbEntity
  8
0
  6
Continuous
 62
     7
100
AcDbLine
 10
186.4432100335136
 20
79.65964601056925
 30
0.0
 11
244.4432100335134
 21
79.65964601057584
 31
0.0
  0
LINE
  5
31F
330
1F
100
AcDbEntity
  8
0
  6
Continuous
 62
     7
100
AcDbLine
 10
244.4432100335137
 20
79.20116448017257
 30
0.0
 11
186.4432100335136
 21
79.20116448016597
 31
0.0
  0
LINE
  5
320
330
1F
100
AcDbEntity
  8
0
  6
Continuous
 62
     7
100
AcDbLine
 10
186.4432100335137
 20
78.96327698168972
 30
0.0
 11
244.4432100335137
 21
78.96327698169631
 31
0.0
  0
LINE
  5
321
330
1F
100
AcDbEntity
  8
0
  6
Continuous
 62
     7
100
AcDbLine
 10
244.4432100335137
 20
78.86715081210247
 30
0.0
 11
186.4432100335137
 21
78.86715081209587
 31
0.0
  0
LINE
  5
322
330
1F
100
AcDbEntity
  8
0
  6
Continuous
 62
     7
100
AcDbLine
 10
244.4432100335137
 20
78.66410620247956
 30
0.0
 11
186.4432100335137
 21
78.66410620247296
 31
0.0
  0
LINE
  5
323
330
1F
100
AcDbEntity
  8
0
  6
Continuous
 62
     7
100
AcDbLine
 10
235.9432100335137
 20
78.59598268366864
 30
0.0
 11
194.9432100335137
 21
78.59598268366409
 31
0.0
  0
LINE
  5
324
330
1F
100
AcDbEntity
  8
1
  6
DOT_CENTER
 62
     2
100
AcDbLine
 10
108.1432102484568
 20
109.20598268366
 30
0.0
 11
108.1432102484568
 21
97.98598268366698
 31
0.0
  0
LINE
  5
325
330
1F
100
AcDbEntity
  8
1
  6
DOT_CENTER
 62
     2
100
AcDbLine
 10
113.7532102484533
 20
103.5959826836635
 30
0.0
 11
102.5332102484603
 21
103.5959826836635
 31
0.0
  0
LINE
  5
326
330
1F
100
AcDbEntity
  8
0
  6
Continuous
 62
     7
100
AcDbLine
 10
131.3053646797793
 20
96.0959826836667
 30
0.0
 11
124.3941567245084
 21
101.0959826836658
 31
0.0
  0
LINE
  5
327
330
1F
100
AcDbEntity
  8
0
  6
Continuous
 62
     7
100
AcDbLine
 10
112.5393411067697
 20
109.6724975957297
 30
0.0
 11
124.3941567245084
 21
101.0959826836658
 31
0.0
  0
LINE
  5
328
330
1F
100
AcDbEntity
  8
0
  6
Continuous
 62
     7
100
AcDbLine
 10
104.9053878988917
 20
87.73982222520596
 30
0.0
 11
104.6483678415816
 21
87.89455001890298
 31
0.0
  0
LINE
  5
329
330
1F
100
AcDbEntity
  8
0
  6
Continuous
 62
     7
100
AcDbLine
 10
109.6779205415855
 20
85.59494549880117
 30
0.0
 11
117.8756859655651
 21
94.13384335142945
 31
0.0
  0
LINE
  5
32A
330
1F
100
AcDbEntity
  8
0
  6
Continuous
 62
     7
100
AcDbLine
 10
110.267925023228
 20
94.11141282863588
 30
0.0
 11
108.3984725383455
 21
88.97513433967788
 31
0.0
  0
LINE
  5
32B
330
1F
100
AcDbEntity
  8
0
  6
Continuous
 62
     7
100
AcDbLine
 10
99.3432102484609
 20
82.5959826836608
 30
0.0
 11
99.3432102484609
 21
84.89598268365916
 31
0.0
  0
LINE
  5
32C
330
1F
100
AcDbEntity
  8
0
  6
Continuous
 62
     7
100
AcDbLine
 10
101.8432102484642
 20
82.59598268366778
 30
0.0
 11
101.843210248464
 21
84.07796480154536
 31
0.0
  0
LINE
  5
32D
330
1F
100
AcDbEntity
  8
0
  6
Continuous
 62
     7
100
AcDbLine
 10
123.0948286166888
 20
81.09598268367012
 30
0.0
 11
103.3432102484642
 21
81.09598268366778
 31
0.0
  0
LINE
  5
32E
330
1F
100
AcDbEntity
  8
0
  6
Continuous
 62
     7
100
AcDbLine
 10
131.3053646797793
 20
96.0959826836667
 30
0.0
 11
136.1432102484583
 21
92.59598268367057
 31
0.0
  0
LINE
  5
32F
330
1F
100
AcDbEntity
  8
0
  6
Continuous
 62
     7
100
AcDbLine
 10
134.6432102484537
 20
90.09598268367148
 30
0.0
 11
136.1432102484618
 21
90.0959826836717
 31
0.0
  0
LINE
  5
330
330
1F
100
AcDbEntity
  8
0
  6
Continuous
 62
     7
100
AcDbLine
 10
137.577800915101
 20
92.345201128734
 30
0.0
 11
137.5985920841827
 21
92.44301588880734
 31
0.0
  0
LINE
  5
331
330
1F
100
AcDbEntity
  8
0
  6
Continuous
 62
     7
100
AcDbLine
 10
136.6315055646674
 20
92.57893103548935
 30
0.0
 11
136.6245299172929
 21
92.47917463046338
 31
0.0
  0
LINE
  5
332
330
1F
100
AcDbEntity
  8
0
  6
Continuous
 62
     7
100
AcDbLine
 10
136.1432102484585
 20
92.49598268367055
 30
0.0
 11
136.1432102484583
 21
92.59598268367057
 31
0.0
  0
LINE
  5
333
330
1F
100
AcDbEntity
  8
0
  6
Continuous
 62
     7
100
AcDbLine
 10
140.1989284892766
 20
91.17819994485814
 30
0.0
 11
140.2577070145059
 21
91.25910164429564
 31
0.0
  0
LINE
  5
334
330
1F
100
AcDbEntity
  8
0
  6
Continuous
 62
     7
100
AcDbLine
 10
139.3825640316812
 20
91.6883210743976
 30
0.0
 11
139.4295111879598
 21
91.77661583368348
 31
0.0
  0
LINE
  5
335
330
1F
100
AcDbEntity
  8
0
  6
Continuous
 62
     7
100
AcDbLine
 10
138.5373512517382
 20
92.17383102917216
 30
0.0
 11
138.5031492374056
 21
92.07986176709363
 31
0.0
  0
LINE
  5
336
330
1F
100
AcDbEntity
  8
0
  6
Continuous
 62
     7
100
AcDbLine
 10
133.6432102484546
 20
82.09598268367148
 30
0.0
 11
133.6432102484538
 21
89.09598268367148
 31
0.0
  0
LINE
  5
337
330
1F
100
AcDbEntity
  8
0
  6
Continuous
 62
     7
100
AcDbLine
 10
141.6592855237057
 20
89.90561301094664
 30
0.0
 11
141.5804844483452
 21
89.84404686341401
 31
0.0
  0
LINE
  5
338
330
1F
100
AcDbEntity
  8
0
  6
Continuous
 62
     7
100
AcDbLine
 10
141.8635694990895
 20
81.73755164971891
 30
0.0
 11
141.9464732563451
 21
81.6816323593718
 31
0.0
  0
LINE
  5
339
330
1F
100
AcDbEntity
  8
0
  6
Continuous
 62
     7
100
AcDbLine
 10
142.2053880749501
 20
89.09598268366716
 30
0.0
 11
142.1432102484519
 21
89.06008429879967
 31
0.0
  0
LINE
  5
33A
330
1F
100
AcDbEntity
  8
0
  6
Continuous
 62
     7
100
AcDbLine
 10
142.1432102484519
 20
89.06008429879967
 30
0.0
 11
142.1432102484519
 21
89.00332769115846
 31
0.0
  0
LINE
  5
33B
330
1F
100
AcDbEntity
  8
0
  6
Continuous
 62
     7
100
AcDbLine
 10
142.1432102484519
 20
89.06008429879967
 30
0.0
 11
142.1187855345715
 21
89.04598268366709
 31
0.0
  0
LINE
  5
33C
330
1F
100
AcDbEntity
  8
0
  6
Continuous
 62
     7
100
AcDbLine
 10
140.9363530046258
 20
90.55942730600776
 30
0.0
 11
141.0058188416716
 21
90.63136128604168
 31
0.0
  0
LINE
  5
33D
330
1F
100
AcDbEntity
  8
0
  6
Continuous
 62
     7
100
AcDbLine
 10
142.9383837442437
 20
84.39781025776529
 30
0.0
 11
143.0368645195449
 21
84.38044543999871
 31
0.0
  0
LINE
  5
33E
330
1F
100
AcDbEntity
  8
0
  6
Continuous
 62
     7
100
AcDbLine
 10
142.8006058625257
 20
83.43286372304249
 30
0.0
 11
142.7055002108961
 21
83.46376542247998
 31
0.0
  0
LINE
  5
33F
330
1F
100
AcDbEntity
  8
0
  6
Continuous
 62
     7
100
AcDbLine
 10
142.5407788449697
 20
88.18076817823686
 30
0.0
 11
142.6334972304265
 21
88.21822883757858
 31
0.0
  0
LINE
  5
340
330
1F
100
AcDbEntity
  8
0
  6
Continuous
 62
     7
100
AcDbLine
 10
143.0054113265003
 20
86.31722908021396
 30
0.0
 11
143.104863516037
 21
86.32768192654078
 31
0.0
  0
LINE
  5
341
330
1F
100
AcDbEntity
  8
0
  6
Continuous
 62
     7
100
AcDbLine
 10
142.9352803323911
 20
87.28943595286484
 30
0.0
 11
142.8382507597634
 21
87.26524376330491
 31
0.0
  0
LINE
  5
342
330
1F
100
AcDbEntity
  8
0
  6
Continuous
 62
     7
100
AcDbLine
 10
143.138946037593
 20
85.35168620674966
 30
0.0
 11
143.0390069548911
 21
85.35517615641987
 31
0.0
  0
LINE
  5
343
330
1F
100
AcDbEntity
  8
0
  6
Continuous
 62
     7
100
AcDbLine
 10
142.4347685725538
 20
82.52738465614351
 30
0.0
 11
142.3448891679238
 21
82.57122177082238
 31
0.0
  0
LINE
  5
344
330
1F
100
AcDbEntity
  8
0
  6
Continuous
 62
     7
100
AcDbLine
 10
136.1432102484629
 20
81.0959826836716
 30
0.0
 11
134.6432102484547
 21
81.09598268367148
 31
0.0
  0
LINE
  5
345
330
1F
100
AcDbEntity
  8
0
  6
Continuous
 62
     7
100
AcDbLine
 10
141.2709095442538
 20
80.978981499795
 30
0.0
 11
141.3452240268017
 21
80.9120684391591
 31
0.0
  0
LINE
  5
346
330
1F
100
AcDbEntity
  8
0
  6
Continuous
 62
     7
100
AcDbLine
 10
136.14321024846
 20
78.59598268367046
 30
0.0
 11
136.14321024846
 21
78.69598268367048
 31
0.0
  0
LINE
  5
347
330
1F
100
AcDbEntity
  8
0
  6
Continuous
 62
     7
100
AcDbLine
 10
103.3432102484614
 20
78.5959826836608
 30
0.0
 11
136.14321024846
 21
78.59598268367046
 31
0.0
  0
LINE
  5
348
330
1F
100
AcDbEntity
  8
0
  6
Continuous
 62
     7
100
AcDbLine
 10
137.1035046450844
 20
78.7631330093538
 30
0.0
 11
137.1174219551805
 21
78.66410620247967
 31
0.0
  0
LINE
  5
349
330
1F
100
AcDbEntity
  8
0
  6
Continuous
 62
     7
100
AcDbLine
 10
138.0451080035973
 20
78.96327698169637
 30
0.0
 11
138.072671739179
 21
78.86715081210247
 31
0.0
  0
LINE
  5
34A
330
1F
100
AcDbEntity
  8
0
  6
Continuous
 62
     7
100
AcDbLine
 10
138.9903667499906
 20
79.20116448017257
 30
0.0
 11
138.949693085683
 21
79.29251902593688
 31
0.0
  0
LINE
  5
34B
330
1F
100
AcDbEntity
  8
0
  6
Continuous
 62
     7
100
AcDbLine
 10
139.799653171669
 20
79.74445082019162
 30
0.0
 11
139.8526450980924
 21
79.65964601057595
 31
0.0
  0
LINE
  5
34C
330
1F
100
AcDbEntity
  8
0
  6
Continuous
 62
     7
100
AcDbLine
 10
140.578444755297
 20
80.31027602615018
 30
0.0
 11
140.6427235162655
 21
80.23367158183817
 31
0.0
  0
LINE
  5
34D
330
1F
100
AcDbEntity
  8
1
  6
DOT_CENTER
 62
     2
100
AcDbLine
 10
80.64321024845788
 20
109.2059826836662
 30
0.0
 11
80.64321024845788
 21
97.98598268366703
 31
0.0
  0
LINE
  5
34E
330
1F
100
AcDbEntity
  8
1
  6
DOT_CENTER
 62
     2
100
AcDbLine
 10
86.2532102484574
 20
103.5959826836667
 30
0.0
 11
75.03321024845829
 21
103.5959826836667
 31
0.0
  0
LINE
  5
34F
330
1F
100
AcDbEntity
  8
0
  6
Continuous
 62
     7
100
AcDbLine
 10
70.91073453135019
 20
94.13384335142945
 30
0.0
 11
79.1084999553299
 21
85.59494549880117
 31
0.0
  0
LINE
  5
350
330
1F
100
AcDbEntity
  8
0
  6
Continuous
 62
     7
100
AcDbLine
 10
78.51849547368758
 20
94.11141282864179
 30
0.0
 11
80.38794795856998
 21
88.97513433968373
 31
0.0
  0
LINE
  5
351
330
1F
100
AcDbEntity
  8
0
  6
Continuous
 62
     7
100
AcDbLine
 10
76.24707939014598
 20
109.6724975957357
 30
0.0
 11
52.64321024845712
 21
92.59598268367057
 31
0.0
  0
LINE
  5
352
330
1F
100
AcDbEntity
  8
0
  6
Continuous
 62
     7
100
AcDbLine
 10
55.14321024846093
 20
82.09598268367137
 30
0.0
 11
55.14321024846174
 21
89.09598268367148
 31
0.0
  0
LINE
  5
353
330
1F
100
AcDbEntity
  8
0
  6
Continuous
 62
     7
100
AcDbLine
 10
52.64321024845712
 20
92.59598268367057
 30
0.0
 11
52.64321024845712
 21
92.49598268367055
 31
0.0
  0
LINE
  5
354
330
1F
100
AcDbEntity
  8
0
  6
Continuous
 62
     7
100
AcDbLine
 10
54.14321024846181
 20
90.09598268367148
 30
0.0
 11
52.64321024845363
 21
90.0959826836717
 31
0.0
  0
LINE
  5
355
330
1F
100
AcDbEntity
  8
0
  6
Continuous
 62
     7
100
AcDbLine
 10
52.64321024845266
 20
81.0959826836716
 30
0.0
 11
54.14321024846082
 21
81.09598268367137
 31
0.0
  0
LINE
  5
356
330
1F
100
AcDbEntity
  8
0
  6
Continuous
 62
     7
100
AcDbLine
 10
52.15491493224822
 20
92.57893103548935
 30
0.0
 11
52.16189057962262
 21
92.47917463046338
 31
0.0
  0
LINE
  5
357
330
1F
100
AcDbEntity
  8
0
  6
Continuous
 62
     7
100
AcDbLine
 10
51.20861958181452
 20
92.345201128734
 30
0.0
 11
51.18782841273271
 21
92.44301588880734
 31
0.0
  0
LINE
  5
358
330
1F
100
AcDbEntity
  8
0
  6
Continuous
 62
     7
100
AcDbLine
 10
50.24906924517732
 20
92.17383102917216
 30
0.0
 11
50.28327125950993
 21
92.07986176709358
 31
0.0
  0
LINE
  5
359
330
1F
100
AcDbEntity
  8
0
  6
Continuous
 62
     7
100
AcDbLine
 10
49.40385646523433
 20
91.68832107439749
 30
0.0
 11
49.35690930895572
 21
91.77661583368348
 31
0.0
  0
LINE
  5
35A
330
1F
100
AcDbEntity
  8
0
  6
Continuous
 62
     7
100
AcDbLine
 10
48.58749200763883
 20
91.17819994485814
 30
0.0
 11
48.52871348240963
 21
91.25910164429564
 31
0.0
  0
LINE
  5
35B
330
1F
100
AcDbEntity
  8
0
  6
Continuous
 62
     7
100
AcDbLine
 10
47.51551095266173
 20
80.978981499795
 30
0.0
 11
47.44119647011394
 21
80.91206843915899
 31
0.0
  0
LINE
  5
35C
330
1F
100
AcDbEntity
  8
0
  6
Continuous
 62
     7
100
AcDbLine
 10
47.85006749228973
 20
90.55942730600776
 30
0.0
 11
47.78060165524381
 21
90.63136128604168
 31
0.0
  0
LINE
  5
35D
330
1F
100
AcDbEntity
  8
0
  6
Continuous
 62
     7
100
AcDbLine
 10
83.88103259802378
 20
87.73982222521187
 30
0.0
 11
84.13805265533378
 21
87.89455001890889
 31
0.0
  0
LINE
  5
35E
330
1F
100
AcDbEntity
  8
0
  6
Continuous
 62
     7
100
AcDbLine
 10
86.94321024845149
 20
84.07796480154548
 30
0.0
 11
86.94321024845127
 21
82.59598268366784
 31
0.0
  0
LINE
  5
35F
330
1F
100
AcDbEntity
  8
0
  6
Continuous
 62
     7
100
AcDbLine
 10
85.44321024845127
 20
81.09598268366784
 30
0.0
 11
65.00990909412579
 21
81.09598268367017
 31
0.0
  0
LINE
  5
360
330
1F
100
AcDbEntity
  8
0
  6
Continuous
 62
     7
100
AcDbLine
 10
47.20593604857042
 20
89.84404686341821
 30
0.0
 11
47.12713497320972
 21
89.90561301095079
 31
0.0
  0
LINE
  5
361
330
1F
100
AcDbEntity
  8
0
  6
Continuous
 62
     7
100
AcDbLine
 10
46.83994724057052
 20
81.68163235937601
 30
0.0
 11
46.92285099782602
 21
81.73755164972312
 31
0.0
  0
LINE
  5
362
330
1F
100
AcDbEntity
  8
0
  6
Continuous
 62
     7
100
AcDbLine
 10
46.64321024846372
 20
89.06008429880438
 30
0.0
 11
46.64321024846372
 21
89.00332769116329
 31
0.0
  0
LINE
  5
363
330
1F
100
AcDbEntity
  8
0
  6
Continuous
 62
     7
100
AcDbLine
 10
46.66763496234403
 20
89.0459826836713
 30
0.0
 11
46.64321024846372
 21
89.06008429880438
 31
0.0
  0
LINE
  5
364
330
1F
100
AcDbEntity
  8
0
  6
Continuous
 62
     7
100
AcDbLine
 10
46.64321024846372
 20
89.06008429880438
 30
0.0
 11
46.58103242196562
 21
89.09598268367125
 31
0.0
  0
LINE
  5
365
330
1F
100
AcDbEntity
  8
0
  6
Continuous
 62
     7
100
AcDbLine
 10
46.44153132899173
 20
82.57122177082658
 30
0.0
 11
46.35165192436172
 21
82.52738465614766
 31
0.0
  0
LINE
  5
366
330
1F
100
AcDbEntity
  8
0
  6
Continuous
 62
     7
100
AcDbLine
 10
46.15292326648903
 20
88.21822883758267
 30
0.0
 11
46.24564165194572
 21
88.18076817824107
 31
0.0
  0
LINE
  5
367
330
1F
100
AcDbEntity
  8
0
  6
Continuous
 62
     7
100
AcDbLine
 10
46.08092028601942
 20
83.46376542248419
 30
0.0
 11
45.98581463438993
 21
83.43286372304658
 31
0.0
  0
LINE
  5
368
330
1F
100
AcDbEntity
  8
0
  6
Continuous
 62
     7
100
AcDbLine
 10
45.94816973715201
 20
87.265243763309
 30
0.0
 11
45.85114016452442
 21
87.28943595286898
 31
0.0
  0
LINE
  5
369
330
1F
100
AcDbEntity
  8
0
  6
Continuous
 62
     7
100
AcDbLine
 10
45.68155698087843
 20
86.32768192654487
 30
0.0
 11
45.78100917041523
 21
86.31722908021806
 31
0.0
  0
LINE
  5
36A
330
1F
100
AcDbEntity
  8
0
  6
Continuous
 62
     7
100
AcDbLine
 10
45.74955597737072
 20
84.3804454400028
 30
0.0
 11
45.84803675267192
 21
84.39781025776944
 31
0.0
  0
LINE
  5
36B
330
1F
100
AcDbEntity
  8
0
  6
Continuous
 62
     7
100
AcDbLine
 10
45.74741354202443
 20
85.35517615642408
 30
0.0
 11
45.64747445932252
 21
85.35168620675375
 31
0.0
  0
LINE
  5
36C
330
1F
100
AcDbEntity
  8
0
  6
Continuous
 62
     7
100
AcDbLine
 10
48.20797574161853
 20
80.31027602615018
 30
0.0
 11
48.14369698064992
 21
80.23367158183817
 31
0.0
  0
LINE
  5
36D
330
1F
100
AcDbEntity
  8
0
  6
Continuous
 62
     7
100
AcDbLine
 10
48.98676732524653
 20
79.74445082019162
 30
0.0
 11
48.93377539882324
 21
79.65964601057584
 31
0.0
  0
LINE
  5
36E
330
1F
100
AcDbEntity
  8
0
  6
Continuous
 62
     7
100
AcDbLine
 10
49.79605374692493
 20
79.20116448017257
 30
0.0
 11
49.83672741123264
 21
79.29251902593688
 31
0.0
  0
LINE
  5
36F
330
1F
100
AcDbEntity
  8
0
  6
Continuous
 62
     7
100
AcDbLine
 10
50.74131249331812
 20
78.96327698169631
 30
0.0
 11
50.71374875773653
 21
78.86715081210247
 31
0.0
  0
LINE
  5
370
330
1F
100
AcDbEntity
  8
0
  6
Continuous
 62
     7
100
AcDbLine
 10
51.68291585183113
 20
78.7631330093538
 30
0.0
 11
51.66899854173502
 21
78.66410620247956
 31
0.0
  0
LINE
  5
371
330
1F
100
AcDbEntity
  8
0
  6
Continuous
 62
     7
100
AcDbLine
 10
52.64321024845553
 20
78.59598268367046
 30
0.0
 11
52.64321024845553
 21
78.69598268367048
 31
0.0
  0
LINE
  5
372
330
1F
100
AcDbEntity
  8
0
  6
Continuous
 62
     7
100
AcDbLine
 10
85.44321024845416
 20
78.59598268366676
 30
0.0
 11
52.64321024845553
 21
78.59598268367046
 31
0.0
  0
LINE
  5
373
330
1F
100
AcDbEntity
  8
0
  6
Continuous
 62
     7
100
AcDbLine
 10
89.44321024845456
 20
84.89598268366518
 30
0.0
 11
89.44321024845456
 21
82.5959826836667
 31
0.0
  0
LINE
  5
374
330
1F
100
AcDbEntity
  8
0
  6
Continuous
 62
     7
100
AcDbLine
 10
109.6427102484579
 20
159.5959826836634
 30
0.0
 11
109.6427102484579
 21
146.0959826836634
 31
0.0
  0
LINE
  5
375
330
1F
100
AcDbEntity
  8
0
  6
Continuous
 62
     7
100
AcDbLine
 10
131.6427102484579
 20
143.0959826836651
 30
0.0
 11
131.6427102481438
 21
114.8459826839793
 31
0.0
  0
LINE
  5
376
330
1F
100
AcDbEntity
  8
0
  6
Continuous
 62
     7
100
AcDbLine
 10
125.6427102484579
 20
114.1459826836658
 30
0.0
 11
130.9427102484579
 21
114.1459826836652
 31
0.0
  0
LINE
  5
377
330
1F
100
AcDbEntity
  8
0
  6
Continuous
 62
     7
100
AcDbLine
 10
131.6427102481438
 20
114.8459826839793
 30
0.0
 11
125.6427102484579
 21
114.8459826836658
 31
0.0
  0
LINE
  5
378
330
1F
100
AcDbEntity
  8
0
  6
Continuous
 62
     7
100
AcDbLine
 10
64.64271024845789
 20
146.0959826836655
 30
0.0
 11
61.64271024845779
 21
146.0959826836651
 31
0.0
  0
LINE
  5
379
330
1F
100
AcDbEntity
  8
0
  6
Continuous
 62
     7
100
AcDbLine
 10
58.64271024845779
 20
114.8459826836652
 30
0.0
 11
58.64271024845779
 21
143.0959826836651
 31
0.0
  0
LINE
  5
37A
330
1F
100
AcDbEntity
  8
0
  6
Continuous
 62
     7
100
AcDbLine
 10
64.64271024845789
 20
114.8459826836658
 30
0.0
 11
58.64271024845779
 21
114.8459826836652
 31
0.0
  0
LINE
  5
37B
330
1F
100
AcDbEntity
  8
0
  6
Continuous
 62
     7
100
AcDbLine
 10
59.34271024845788
 20
114.1459826836652
 30
0.0
 11
64.64271024845789
 21
114.1459826836658
 31
0.0
  0
LINE
  5
37C
330
1F
100
AcDbEntity
  8
0
  6
Continuous
 62
     7
100
AcDbLine
 10
109.6427102484579
 20
159.5959826836634
 30
0.0
 11
107.6427102484579
 21
159.5959826836634
 31
0.0
  0
LINE
  5
37D
330
1F
100
AcDbEntity
  8
0
  6
Continuous
 62
     7
100
AcDbLine
 10
80.64271024845789
 20
146.0959826836634
 30
0.0
 11
109.6427102484579
 21
146.0959826836634
 31
0.0
  0
LINE
  5
37E
330
1F
100
AcDbEntity
  8
0
  6
Continuous
 62
     7
100
AcDbLine
 10
109.6427102484579
 20
146.0959826836634
 30
0.0
 11
125.6427102484579
 21
146.0959826836655
 31
0.0
  0
LINE
  5
37F
330
1F
100
AcDbEntity
  8
0
  6
Continuous
 62
     7
100
AcDbLine
 10
64.64271024845789
 20
146.0959826836655
 30
0.0
 11
80.64271024845789
 21
146.0959826836634
 31
0.0
  0
LINE
  5
380
330
1F
100
AcDbEntity
  8
0
  6
Continuous
 62
     7
100
AcDbLine
 10
80.64271024845789
 20
159.5959826836634
 30
0.0
 11
80.64271024845789
 21
146.0959826836634
 31
0.0
  0
LINE
  5
381
330
1F
100
AcDbEntity
  8
0
  6
Continuous
 62
     7
100
AcDbLine
 10
125.6427102484579
 20
146.0959826836655
 30
0.0
 11
128.6427102484577
 21
146.0959826836651
 31
0.0
  0
LINE
  5
382
330
1F
100
AcDbEntity
  8
0
  6
Continuous
 62
     7
100
AcDbLine
 10
125.6427102484579
 20
101.0959826836658
 30
0.0
 11
124.3941567245084
 21
101.0959826836658
 31
0.0
  0
LINE
  5
383
330
1F
100
AcDbEntity
  8
0
  6
Continuous
 62
     7
100
AcDbLine
 10
131.6437102484579
 20
96.09598268366511
 30
0.0
 11
131.3053646797793
 21
96.0959826836667
 31
0.0
  0
LINE
  5
384
330
1F
100
AcDbEntity
  8
0
  6
Continuous
 62
     7
100
AcDbLine
 10
101.643154853484
 20
128.5959826836658
 30
0.0
 11
95.14271024845786
 21
124.8473929614341
 31
0.0
  0
LINE
  5
385
330
1F
100
AcDbEntity
  8
0
  6
Continuous
 62
     7
100
AcDbLine
 10
95.14271024845786
 20
124.8473929614341
 30
0.0
 11
88.64226564343178
 21
128.5959826836658
 31
0.0
  0
LINE
  5
386
330
1F
100
AcDbEntity
  8
0
  6
Continuous
 62
     7
100
AcDbLine
 10
88.64226564343178
 20
128.5959826836658
 30
0.0
 11
95.14271024845786
 21
132.3445724058975
 31
0.0
  0
LINE
  5
387
330
1F
100
AcDbEntity
  8
0
  6
Continuous
 62
     7
100
AcDbLine
 10
94.3927102484578
 20
129.9762137109307
 30
0.0
 11
94.39271024845786
 21
127.6059826836658
 31
0.0
  0
LINE
  5
388
330
1F
100
AcDbEntity
  8
0
  6
Continuous
 62
     7
100
AcDbLine
 10
89.14271024845786
 20
128.5959826836658
 30
0.0
 11
95.14271024845786
 21
125.1359826836658
 31
0.0
  0
LINE
  5
389
330
1F
100
AcDbEntity
  8
0
  6
Continuous
 62
     7
100
AcDbLine
 10
95.01782130096538
 20
125.6697455322906
 30
0.0
 11
93.01782130096538
 21
126.8230788656239
 31
0.0
  0
LINE
  5
38A
330
1F
100
AcDbEntity
  8
0
  6
Continuous
 62
     7
100
AcDbLine
 10
95.14271024845786
 20
132.0559826836658
 30
0.0
 11
89.14271024845786
 21
128.5959826836658
 31
0.0
  0
LINE
  5
38B
330
1F
100
AcDbEntity
  8
0
  6
Continuous
 62
     7
100
AcDbLine
 10
95.14271024845786
 20
128.9716003614456
 30
0.0
 11
94.3927102484578
 21
129.9762137109307
 31
0.0
  0
LINE
  5
38C
330
1F
100
AcDbEntity
  8
0
  6
Continuous
 62
     7
100
AcDbLine
 10
91.89271024845786
 20
127.6059826836658
 30
0.0
 11
91.89271024845786
 21
129.5859826836658
 31
0.0
  0
LINE
  5
38D
330
1F
100
AcDbEntity
  8
0
  6
Continuous
 62
     7
100
AcDbLine
 10
92.39271024845786
 20
129.5859826836658
 30
0.0
 11
92.39271024845786
 21
127.6059826836658
 31
0.0
  0
LINE
  5
38E
330
1F
100
AcDbEntity
  8
0
  6
Continuous
 62
     7
100
AcDbLine
 10
92.89271024845786
 20
127.0396492948016
 30
0.0
 11
92.89271024845786
 21
130.15231607253
 31
0.0
  0
LINE
  5
38F
330
1F
100
AcDbEntity
  8
0
  6
Continuous
 62
     7
100
AcDbLine
 10
93.39271024845786
 20
130.15231607253
 30
0.0
 11
93.39271024845786
 21
127.1840723503667
 31
0.0
  0
LINE
  5
390
330
1F
100
AcDbEntity
  8
0
  6
Continuous
 62
     7
100
AcDbLine
 10
93.89271024845786
 20
127.6059826836658
 30
0.0
 11
93.89271024845786
 21
130.7289827391967
 31
0.0
  0
LINE
  5
391
330
1F
100
AcDbEntity
  8
0
  6
Continuous
 62
     7
100
AcDbLine
 10
94.3430409435048
 20
130.8785407968933
 30
0.0
 11
95.14271024845786
 21
129.8073961849881
 31
0.0
  0
LINE
  5
392
330
1F
100
AcDbEntity
  8
0
  6
Continuous
 62
     7
100
AcDbLine
 10
64.64271024845789
 20
110.8459826836659
 30
0.0
 11
78.72292381148748
 21
110.8459826836659
 31
0.0
  0
LINE
  5
393
330
1F
100
AcDbEntity
  8
0
  6
Continuous
 62
     7
100
AcDbLine
 10
59.34271024845788
 20
114.1459826836652
 30
0.0
 11
58.64271024845779
 21
114.8459826836652
 31
0.0
  0
LINE
  5
394
330
1F
100
AcDbEntity
  8
0
  6
Continuous
 62
     7
100
AcDbLine
 10
64.64271024845789
 20
109.8459826836658
 30
0.0
 11
58.64271024877198
 21
109.8459826839793
 31
0.0
  0
LINE
  5
395
330
1F
100
AcDbEntity
  8
0
  6
Continuous
 62
     7
100
AcDbLine
 10
59.34271024845788
 20
114.1459826836652
 30
0.0
 11
59.34271024845788
 21
114.0459826836652
 31
0.0
  0
LINE
  5
396
330
1F
100
AcDbEntity
  8
0
  6
Continuous
 62
     7
100
AcDbLine
 10
58.64271024877198
 20
112.3459826839793
 30
0.0
 11
58.64271024845779
 21
110.8459826836651
 31
0.0
  0
LINE
  5
397
330
1F
100
AcDbEntity
  8
0
  6
Continuous
 62
     7
100
AcDbLine
 10
58.64271024845779
 20
114.8459826836652
 30
0.0
 11
58.64271024845779
 21
113.3459826836651
 31
0.0
  0
LINE
  5
398
330
1F
100
AcDbEntity
  8
0
  6
Continuous
 62
     7
100
AcDbLine
 10
95.14271024845786
 20
125.1359826836658
 30
0.0
 11
101.1427102484579
 21
128.5959826836658
 31
0.0
  0
LINE
  5
399
330
1F
100
AcDbEntity
  8
0
  6
Continuous
 62
     7
100
AcDbLine
 10
98.14271024845786
 20
128.3459826836658
 30
0.0
 11
97.39271024845786
 21
128.3459826836658
 31
0.0
  0
LINE
  5
39A
330
1F
100
AcDbEntity
  8
0
  6
Continuous
 62
     7
100
AcDbLine
 10
97.39271024845786
 20
128.3459826836658
 30
0.0
 11
97.39271024845786
 21
127.4724056837
 31
0.0
  0
LINE
  5
39B
330
1F
100
AcDbEntity
  8
0
  6
Continuous
 62
     7
100
AcDbLine
 10
97.39271024845786
 20
127.4724056837
 30
0.0
 11
98.01782130096538
 21
127.832886390646
 31
0.0
  0
LINE
  5
39C
330
1F
100
AcDbEntity
  8
0
  6
Continuous
 62
     7
100
AcDbLine
 10
98.26759919595028
 20
127.3997455322906
 30
0.0
 11
97.26759919595028
 21
126.8230788656239
 31
0.0
  0
LINE
  5
39D
330
1F
100
AcDbEntity
  8
0
  6
Continuous
 62
     7
100
AcDbLine
 10
101.1427102484579
 20
128.5959826836658
 30
0.0
 11
95.14271024845786
 21
132.0559826836658
 31
0.0
  0
LINE
  5
39E
330
1F
100
AcDbEntity
  8
0
  6
Continuous
 62
     7
100
AcDbLine
 10
95.14271024845786
 20
132.3445724058975
 30
0.0
 11
101.643154853484
 21
128.5959826836658
 31
0.0
  0
LINE
  5
39F
330
1F
100
AcDbEntity
  8
0
  6
Continuous
 62
     7
100
AcDbLine
 10
97.26759919595028
 20
130.3688865017078
 30
0.0
 11
98.26759919595028
 21
129.7922198350411
 31
0.0
  0
LINE
  5
3A0
330
1F
100
AcDbEntity
  8
0
  6
Continuous
 62
     7
100
AcDbLine
 10
98.01782130096538
 20
129.3590789766857
 30
0.0
 11
97.39271024845786
 21
129.7195596836316
 31
0.0
  0
LINE
  5
3A1
330
1F
100
AcDbEntity
  8
0
  6
Continuous
 62
     7
100
AcDbLine
 10
97.39271024845786
 20
129.7195596836316
 30
0.0
 11
97.39271024845786
 21
128.8459826836658
 31
0.0
  0
LINE
  5
3A2
330
1F
100
AcDbEntity
  8
0
  6
Continuous
 62
     7
100
AcDbLine
 10
97.39271024845786
 20
128.8459826836658
 30
0.0
 11
98.14271024845786
 21
128.8459826836658
 31
0.0
  0
LINE
  5
3A3
330
1F
100
AcDbEntity
  8
0
  6
Continuous
 62
     7
100
AcDbLine
 10
95.14271024845786
 20
129.8073961849881
 30
0.0
 11
95.94237955341097
 21
130.8785407968933
 31
0.0
  0
LINE
  5
3A4
330
1F
100
AcDbEntity
  8
0
  6
Continuous
 62
     7
100
AcDbLine
 10
95.89271024845786
 20
129.9762137109307
 30
0.0
 11
95.14271024845786
 21
128.9716003614456
 31
0.0
  0
LINE
  5
3A5
330
1F
100
AcDbEntity
  8
0
  6
Continuous
 62
     7
100
AcDbLine
 10
96.89271024845786
 20
127.0396492948016
 30
0.0
 11
96.89271024845786
 21
130.15231607253
 31
0.0
  0
LINE
  5
3A6
330
1F
100
AcDbEntity
  8
0
  6
Continuous
 62
     7
100
AcDbLine
 10
93.39271024845786
 20
127.1840723503667
 30
0.0
 11
95.26759919595028
 21
126.102886390646
 31
0.0
  0
LINE
  5
3A7
330
1F
100
AcDbEntity
  8
0
  6
Continuous
 62
     7
100
AcDbLine
 10
96.39271024845786
 20
130.7289827391967
 30
0.0
 11
96.39271024845786
 21
126.4629826281349
 31
0.0
  0
LINE
  5
3A8
330
1F
100
AcDbEntity
  8
0
  6
Continuous
 62
     7
100
AcDbLine
 10
95.89271024845786
 20
126.4629826281349
 30
0.0
 11
95.89271024845786
 21
129.9762137109307
 31
0.0
  0
LINE
  5
3A9
330
1F
100
AcDbEntity
  8
0
  6
Continuous
 62
     7
100
AcDbLine
 10
64.64271024845789
 20
109.1459826836658
 30
0.0
 11
75.51930858037358
 21
109.1459826836658
 31
0.0
  0
LINE
  5
3AA
330
1F
100
AcDbEntity
  8
0
  6
Continuous
 62
     7
100
AcDbLine
 10
64.64271024845789
 20
108.3459826836659
 30
0.0
 11
74.41351530753147
 21
108.3459826836659
 31
0.0
  0
LINE
  5
3AB
330
1F
100
AcDbEntity
  8
0
  6
Continuous
 62
     7
100
AcDbLine
 10
125.6427102484579
 20
112.3459826836658
 30
0.0
 11
64.64271024845789
 21
112.3459826836658
 31
0.0
  0
LINE
  5
3AC
330
1F
100
AcDbEntity
  8
0
  6
Continuous
 62
     7
100
AcDbLine
 10
125.6427102484579
 20
114.8459826836658
 30
0.0
 11
64.64271024845789
 21
114.8459826836658
 31
0.0
  0
LINE
  5
3AD
330
1F
100
AcDbEntity
  8
0
  6
Continuous
 62
     7
100
AcDbLine
 10
125.6427102484579
 20
111.5459826836658
 30
0.0
 11
64.64271024845789
 21
111.5459826836658
 31
0.0
  0
LINE
  5
3AE
330
1F
100
AcDbEntity
  8
0
  6
Continuous
 62
     7
100
AcDbLine
 10
82.56349668542819
 20
110.8459826836659
 30
0.0
 11
106.2229238115093
 21
110.8459826836659
 31
0.0
  0
LINE
  5
3AF
330
1F
100
AcDbEntity
  8
0
  6
Continuous
 62
     7
100
AcDbLine
 10
103.9974292605209
 20
109.8459826836658
 30
0.0
 11
84.7889912364034
 21
109.8459826836658
 31
0.0
  0
LINE
  5
3B0
330
1F
100
AcDbEntity
  8
0
  6
Continuous
 62
     7
100
AcDbLine
 10
76.49742926051229
 20
109.8459826836658
 30
0.0
 11
64.64271024845789
 21
109.8459826836658
 31
0.0
  0
LINE
  5
3B1
330
1F
100
AcDbEntity
  8
0
  6
Continuous
 62
     7
100
AcDbLine
 10
125.6427102484579
 20
109.8459826836658
 30
0.0
 11
112.2889912363942
 21
109.8459826836658
 31
0.0
  0
LINE
  5
3B2
330
1F
100
AcDbEntity
  8
0
  6
Continuous
 62
     7
100
AcDbLine
 10
110.0634966854054
 20
110.8459826836659
 30
0.0
 11
125.6427102484579
 21
110.8459826836658
 31
0.0
  0
LINE
  5
3B3
330
1F
100
AcDbEntity
  8
0
  6
Continuous
 62
     7
100
AcDbLine
 10
64.64271024845789
 20
111.6459826836658
 30
0.0
 11
125.6427102484579
 21
111.6459826836658
 31
0.0
  0
LINE
  5
3B4
330
1F
100
AcDbEntity
  8
0
  6
Continuous
 62
     7
100
AcDbLine
 10
125.6427102484579
 20
114.0459826836658
 30
0.0
 11
64.64271024845789
 21
114.0459826836658
 31
0.0
  0
LINE
  5
3B5
330
1F
100
AcDbEntity
  8
0
  6
Continuous
 62
     7
100
AcDbLine
 10
64.64271024845789
 20
114.1459826836658
 30
0.0
 11
125.6427102484579
 21
114.1459826836658
 31
0.0
  0
LINE
  5
3B6
330
1F
100
AcDbEntity
  8
0
  6
Continuous
 62
     7
100
AcDbLine
 10
64.64271024845789
 20
113.3459826836659
 30
0.0
 11
125.6427102484579
 21
113.3459826836658
 31
0.0
  0
LINE
  5
3B7
330
1F
100
AcDbEntity
  8
0
  6
Continuous
 62
     7
100
AcDbLine
 10
102.9907836356909
 20
109.0459826836658
 30
0.0
 11
85.79563686123069
 21
109.0459826836658
 31
0.0
  0
LINE
  5
3B8
330
1F
100
AcDbEntity
  8
0
  6
Continuous
 62
     7
100
AcDbLine
 10
75.3810844212683
 20
109.0459826836658
 30
0.0
 11
64.64271024845789
 21
109.0459826836658
 31
0.0
  0
LINE
  5
3B9
330
1F
100
AcDbEntity
  8
0
  6
Continuous
 62
     7
100
AcDbLine
 10
125.6427102484579
 20
109.0459826836658
 30
0.0
 11
113.4053360756392
 21
109.0459826836658
 31
0.0
  0
LINE
  5
3BA
330
1F
100
AcDbEntity
  8
0
  6
Continuous
 62
     7
100
AcDbLine
 10
85.68776176469888
 20
109.1459826836658
 30
0.0
 11
103.0986587322229
 21
109.1459826836658
 31
0.0
  0
LINE
  5
3BB
330
1F
100
AcDbEntity
  8
0
  6
Continuous
 62
     7
100
AcDbLine
 10
113.2671119165339
 20
109.1459826836658
 30
0.0
 11
125.6427102484579
 21
109.1459826836658
 31
0.0
  0
LINE
  5
3BC
330
1F
100
AcDbEntity
  8
0
  6
Continuous
 62
     7
100
AcDbLine
 10
86.44730363158047
 20
108.3459826836659
 30
0.0
 11
102.3391168653397
 21
108.3459826836659
 31
0.0
  0
LINE
  5
3BD
330
1F
100
AcDbEntity
  8
0
  6
Continuous
 62
     7
100
AcDbLine
 10
114.372905189376
 20
108.3459826836659
 30
0.0
 11
125.6427102484579
 21
108.3459826836658
 31
0.0
  0
LINE
  5
3BE
330
1F
100
AcDbEntity
  8
0
  6
Continuous
 62
     7
100
AcDbLine
 10
101.0721424365902
 20
101.0959826836658
 30
0.0
 11
87.71427806032298
 21
101.0959826836658
 31
0.0
  0
LINE
  5
3BF
330
1F
100
AcDbEntity
  8
0
  6
Continuous
 62
     7
100
AcDbLine
 10
108.1432102484588
 20
96.09598268366068
 30
0.0
 11
80.64321024845788
 21
96.0959826836658
 31
0.0
  0
LINE
  5
3C0
330
1F
100
AcDbEntity
  8
0
  6
Continuous
 62
     7
100
AcDbLine
 10
109.1491971781586
 20
96.0959826836658
 30
0.0
 11
108.1432102484588
 21
96.09598268366068
 31
0.0
  0
LINE
  5
3C1
330
1F
100
AcDbEntity
  8
0
  6
Continuous
 62
     7
100
AcDbLine
 10
131.6427102484579
 20
101.0959826836651
 30
0.0
 11
125.6427102484579
 21
101.0959826836658
 31
0.0
  0
LINE
  5
3C2
330
1F
100
AcDbEntity
  8
0
  6
Continuous
 62
     7
100
AcDbLine
 10
130.942710248772
 20
111.645982683351
 30
0.0
 11
131.6427102481438
 21
112.3459826839793
 31
0.0
  0
LINE
  5
3C3
330
1F
100
AcDbEntity
  8
0
  6
Continuous
 62
     7
100
AcDbLine
 10
130.942710248772
 20
111.5459826839792
 30
0.0
 11
131.6427102484579
 21
110.8459826836652
 31
0.0
  0
LINE
  5
3C4
330
1F
100
AcDbEntity
  8
0
  6
Continuous
 62
     7
100
AcDbLine
 10
125.6427102484579
 20
113.3459826836658
 30
0.0
 11
131.6427102484579
 21
113.3459826836652
 31
0.0
  0
LINE
  5
3C5
330
1F
100
AcDbEntity
  8
0
  6
Continuous
 62
     7
100
AcDbLine
 10
131.6427102481438
 20
112.3459826839793
 30
0.0
 11
125.6427102484579
 21
112.3459826836658
 31
0.0
  0
LINE
  5
3C6
330
1F
100
AcDbEntity
  8
0
  6
Continuous
 62
     7
100
AcDbLine
 10
125.6427102484579
 20
111.6459826836658
 30
0.0
 11
130.942710248772
 21
111.645982683351
 31
0.0
  0
LINE
  5
3C7
330
1F
100
AcDbEntity
  8
0
  6
Continuous
 62
     7
100
AcDbLine
 10
130.9427102484579
 20
114.0459826836652
 30
0.0
 11
125.6427102484579
 21
114.0459826836658
 31
0.0
  0
LINE
  5
3C8
330
1F
100
AcDbEntity
  8
0
  6
Continuous
 62
     7
100
AcDbLine
 10
125.6427102484579
 20
109.1459826836658
 30
0.0
 11
130.942710248772
 21
109.145982683351
 31
0.0
  0
LINE
  5
3C9
330
1F
100
AcDbEntity
  8
0
  6
Continuous
 62
     7
100
AcDbLine
 10
130.942710248772
 20
111.5459826839792
 30
0.0
 11
125.6427102484579
 21
111.5459826836658
 31
0.0
  0
LINE
  5
3CA
330
1F
100
AcDbEntity
  8
0
  6
Continuous
 62
     7
100
AcDbLine
 10
130.942710248772
 20
111.645982683351
 30
0.0
 11
130.942710248772
 21
111.5459826839792
 31
0.0
  0
LINE
  5
3CB
330
1F
100
AcDbEntity
  8
0
  6
Continuous
 62
     7
100
AcDbLine
 10
131.6427102484579
 20
110.8459826836652
 30
0.0
 11
131.6427102481438
 21
109.8459826839793
 31
0.0
  0
LINE
  5
3CC
330
1F
100
AcDbEntity
  8
0
  6
Continuous
 62
     7
100
AcDbLine
 10
131.6427102481438
 20
109.8459826839793
 30
0.0
 11
125.6427102484579
 21
109.8459826836658
 31
0.0
  0
LINE
  5
3CD
330
1F
100
AcDbEntity
  8
0
  6
Continuous
 62
     7
100
AcDbLine
 10
125.6427102484579
 20
110.8459826836658
 30
0.0
 11
131.6427102484579
 21
110.8459826836652
 31
0.0
  0
LINE
  5
3CE
330
1F
100
AcDbEntity
  8
0
  6
Continuous
 62
     7
100
AcDbLine
 10
131.6427102484579
 20
110.8459826836652
 30
0.0
 11
131.6427102481438
 21
112.3459826839793
 31
0.0
  0
LINE
  5
3CF
330
1F
100
AcDbEntity
  8
0
  6
Continuous
 62
     7
100
AcDbLine
 10
130.942710248772
 20
109.0459826839792
 30
0.0
 11
125.6427102484579
 21
109.0459826836658
 31
0.0
  0
LINE
  5
3D0
330
1F
100
AcDbEntity
  8
0
  6
Continuous
 62
     7
100
AcDbLine
 10
125.6427102484579
 20
108.3459826836658
 30
0.0
 11
131.6427102484579
 21
108.3459826836652
 31
0.0
  0
LINE
  5
3D1
330
1F
100
AcDbEntity
  8
0
  6
Continuous
 62
     7
100
AcDbLine
 10
130.942710248772
 20
109.145982683351
 30
0.0
 11
130.942710248772
 21
109.0459826839792
 31
0.0
  0
LINE
  5
3D2
330
1F
100
AcDbEntity
  8
0
  6
Continuous
 62
     7
100
AcDbLine
 10
130.942710248772
 20
109.0459826839792
 30
0.0
 11
131.6427102484579
 21
108.3459826836652
 31
0.0
  0
LINE
  5
3D3
330
1F
100
AcDbEntity
  8
0
  6
Continuous
 62
     7
100
AcDbLine
 10
131.6427102484579
 20
108.3459826836652
 30
0.0
 11
131.6427102481438
 21
109.8459826839793
 31
0.0
  0
LINE
  5
3D4
330
1F
100
AcDbEntity
  8
0
  6
Continuous
 62
     7
100
AcDbLine
 10
131.6437102484579
 20
96.09598268366511
 30
0.0
 11
131.6427102484579
 21
101.0959826836651
 31
0.0
  0
LINE
  5
3D5
330
1F
100
AcDbEntity
  8
0
  6
Continuous
 62
     7
100
AcDbLine
 10
64.39226377240028
 20
101.0959826836667
 30
0.0
 11
58.64271024845779
 21
101.0959826836651
 31
0.0
  0
LINE
  5
3D6
330
1F
100
AcDbEntity
  8
0
  6
Continuous
 62
     7
100
AcDbLine
 10
59.34271024814379
 20
111.645982683351
 30
0.0
 11
58.64271024877198
 21
112.3459826839793
 31
0.0
  0
LINE
  5
3D7
330
1F
100
AcDbEntity
  8
0
  6
Continuous
 62
     7
100
AcDbLine
 10
59.34271024845788
 20
114.0459826836652
 30
0.0
 11
58.64271024845779
 21
113.3459826836651
 31
0.0
  0
LINE
  5
3D8
330
1F
100
AcDbEntity
  8
0
  6
Continuous
 62
     7
100
AcDbLine
 10
59.34271024814379
 20
109.145982683351
 30
0.0
 11
58.64271024877198
 21
109.8459826839793
 31
0.0
  0
LINE
  5
3D9
330
1F
100
AcDbEntity
  8
0
  6
Continuous
 62
     7
100
AcDbLine
 10
59.34271024814379
 20
111.645982683351
 30
0.0
 11
64.64271024845789
 21
111.6459826836658
 31
0.0
  0
LINE
  5
3DA
330
1F
100
AcDbEntity
  8
0
  6
Continuous
 62
     7
100
AcDbLine
 10
64.64271024845789
 20
114.0459826836658
 30
0.0
 11
59.34271024845788
 21
114.0459826836652
 31
0.0
  0
LINE
  5
3DB
330
1F
100
AcDbEntity
  8
0
  6
Continuous
 62
     7
100
AcDbLine
 10
59.34271024814379
 20
109.145982683351
 30
0.0
 11
64.64271024845789
 21
109.1459826836658
 31
0.0
  0
LINE
  5
3DC
330
1F
100
AcDbEntity
  8
0
  6
Continuous
 62
     7
100
AcDbLine
 10
64.64271024845789
 20
111.5459826836658
 30
0.0
 11
59.34271024814379
 21
111.5459826839792
 31
0.0
  0
LINE
  5
3DD
330
1F
100
AcDbEntity
  8
0
  6
Continuous
 62
     7
100
AcDbLine
 10
59.34271024814379
 20
111.645982683351
 30
0.0
 11
59.34271024814379
 21
111.5459826839792
 31
0.0
  0
LINE
  5
3DE
330
1F
100
AcDbEntity
  8
0
  6
Continuous
 62
     7
100
AcDbLine
 10
58.64271024845779
 20
110.8459826836651
 30
0.0
 11
64.64271024845789
 21
110.8459826836659
 31
0.0
  0
LINE
  5
3DF
330
1F
100
AcDbEntity
  8
0
  6
Continuous
 62
     7
100
AcDbLine
 10
58.64271024877198
 20
109.8459826839793
 30
0.0
 11
58.64271024845779
 21
110.8459826836651
 31
0.0
  0
LINE
  5
3E0
330
1F
100
AcDbEntity
  8
0
  6
Continuous
 62
     7
100
AcDbLine
 10
64.64271024845789
 20
112.3459826836658
 30
0.0
 11
58.64271024877198
 21
112.3459826839793
 31
0.0
  0
LINE
  5
3E1
330
1F
100
AcDbEntity
  8
0
  6
Continuous
 62
     7
100
AcDbLine
 10
58.64271024845779
 20
113.3459826836651
 30
0.0
 11
64.64271024845789
 21
113.3459826836659
 31
0.0
  0
LINE
  5
3E2
330
1F
100
AcDbEntity
  8
0
  6
Continuous
 62
     7
100
AcDbLine
 10
58.64271024877198
 20
112.3459826839793
 30
0.0
 11
58.64271024845779
 21
113.3459826836651
 31
0.0
  0
LINE
  5
3E3
330
1F
100
AcDbEntity
  8
0
  6
Continuous
 62
     7
100
AcDbLine
 10
59.34271024814379
 20
111.5459826839792
 30
0.0
 11
58.64271024845779
 21
110.8459826836651
 31
0.0
  0
LINE
  5
3E4
330
1F
100
AcDbEntity
  8
0
  6
Continuous
 62
     7
100
AcDbLine
 10
64.64271024845789
 20
109.0459826836658
 30
0.0
 11
59.34271024814379
 21
109.0459826839792
 31
0.0
  0
LINE
  5
3E5
330
1F
100
AcDbEntity
  8
0
  6
Continuous
 62
     7
100
AcDbLine
 10
58.64271024845779
 20
108.3459826836651
 30
0.0
 11
64.64271024845789
 21
108.3459826836659
 31
0.0
  0
LINE
  5
3E6
330
1F
100
AcDbEntity
  8
0
  6
Continuous
 62
     7
100
AcDbLine
 10
59.34271024814379
 20
109.145982683351
 30
0.0
 11
59.34271024814379
 21
109.0459826839792
 31
0.0
  0
LINE
  5
3E7
330
1F
100
AcDbEntity
  8
0
  6
Continuous
 62
     7
100
AcDbLine
 10
58.64271024845779
 20
101.0959826836651
 30
0.0
 11
58.64271024845779
 21
108.3459826836651
 31
0.0
  0
LINE
  5
3E8
330
1F
100
AcDbEntity
  8
0
  6
Continuous
 62
     7
100
AcDbLine
 10
59.34271024814379
 20
109.0459826839792
 30
0.0
 11
58.64271024845779
 21
108.3459826836651
 31
0.0
  0
LINE
  5
3E9
330
1F
100
AcDbEntity
  8
0
  6
Continuous
 62
     7
100
AcDbLine
 10
58.64271024877198
 20
109.8459826839793
 30
0.0
 11
58.64271024845779
 21
108.3459826836651
 31
0.0
  0
LINE
  5
3EA
330
1F
100
AcDbEntity
  8
0
  6
Continuous
 62
     7
100
AcDbLine
 10
58.64171024845788
 20
96.93567267623683
 30
0.0
 11
58.64271024845779
 21
101.0959826836651
 31
0.0
  0
LINE
  5
3EB
330
1F
100
AcDbEntity
  8
0
  6
Continuous
 62
     7
100
AcDbLine
 10
80.64321024845788
 20
96.0959826836658
 30
0.0
 11
79.6372233187569
 21
96.0959826836658
 31
0.0
  0
LINE
  5
3EC
330
1F
100
AcDbEntity
  8
0
  6
Continuous
 62
     7
100
AcDbLine
 10
130.9427102484579
 20
114.1459826836652
 30
0.0
 11
131.6427102481438
 21
114.8459826839793
 31
0.0
  0
LINE
  5
3ED
330
1F
100
AcDbEntity
  8
0
  6
Continuous
 62
     7
100
AcDbLine
 10
130.9427102484579
 20
114.0459826836652
 30
0.0
 11
131.6427102484579
 21
113.3459826836652
 31
0.0
  0
LINE
  5
3EE
330
1F
100
AcDbEntity
  8
0
  6
Continuous
 62
     7
100
AcDbLine
 10
130.942710248772
 20
109.145982683351
 30
0.0
 11
131.6427102481438
 21
109.8459826839793
 31
0.0
  0
LINE
  5
3EF
330
1F
100
AcDbEntity
  8
0
  6
Continuous
 62
     7
100
AcDbLine
 10
130.9427102484579
 20
114.1459826836652
 30
0.0
 11
130.9427102484579
 21
114.0459826836652
 31
0.0
  0
LINE
  5
3F0
330
1F
100
AcDbEntity
  8
0
  6
Continuous
 62
     7
100
AcDbLine
 10
131.6427102484579
 20
113.3459826836652
 30
0.0
 11
131.6427102481438
 21
112.3459826839793
 31
0.0
  0
LINE
  5
3F1
330
1F
100
AcDbEntity
  8
0
  6
Continuous
 62
     7
100
AcDbLine
 10
131.6427102484579
 20
108.3459826836652
 30
0.0
 11
131.6427102484579
 21
101.0959826836651
 31
0.0
  0
LINE
  5
3F2
330
1F
100
AcDbEntity
  8
0
  6
Continuous
 62
     7
100
AcDbLine
 10
131.6427102484579
 20
113.3459826836652
 30
0.0
 11
131.6427102481438
 21
114.8459826839793
 31
0.0
  0
LINE
  5
44D
330
1F
100
AcDbEntity
  8
1
  6
Continuous
 62
     2
100
AcDbLine
 10
107.6427102484579
 20
159.5959826836634
 30
0.0
 11
107.6427102484579
 21
159.6959826836634
 31
0.0
  0
LINE
  5
44E
330
1F
100
AcDbEntity
  8
0
  6
Continuous
 62
     7
100
AcDbLine
 10
107.6427102484579
 20
159.5959826836634
 30
0.0
 11
82.64271024845786
 21
159.5959826836634
 31
0.0
  0
LINE
  5
44F
330
1F
100
AcDbEntity
  8
1
  6
Continuous
 62
     2
100
AcDbLine
 10
82.64271024845786
 20
159.5959826836634
 30
0.0
 11
82.64271024845786
 21
159.6959826836634
 31
0.0
  0
LINE
  5
450
330
1F
100
AcDbEntity
  8
0
  6
Continuous
 62
     7
100
AcDbLine
 10
82.64271024845786
 20
159.5959826836634
 30
0.0
 11
80.64271024845789
 21
159.5959826836634
 31
0.0
  0
LINE
  5
451
330
1F
100
AcDbEntity
  8
1
  6
Continuous
 62
     7
100
AcDbLine
 10
193.874689552309
 20
107.4294622024594
 30
0.0
 11
193.9977825525124
 21
107.5525552026628
 31
0.0
  0
LINE
  5
452
330
1F
100
AcDbEntity
  8
0
  6
Continuous
 62
     7
100
AcDbLine
 10
193.9977825525124
 20
107.5525552026628
 30
0.0
 11
193.9977825523092
 21
106.095982683661
 31
0.0
  0
LINE
  5
453
330
1F
100
AcDbEntity
  8
1
  6
Continuous
 62
     7
100
AcDbLine
 10
193.8746895523099
 20
99.76250316486238
 30
0.0
 11
193.9974912960573
 21
99.63970142111502
 31
0.0
  0
LINE
  5
454
330
1F
100
AcDbEntity
  8
0
  6
Continuous
 62
     7
100
AcDbLine
 10
193.9974912960573
 20
99.63970142111502
 30
0.0
 11
193.9977825523096
 21
101.095982683661
 31
0.0
  0
ARC
  5
455
330
1F
100
AcDbEntity
  8
1
  6
DASHED
 62
     2
100
AcDbCircle
 10
108.1432102484558
 20
103.5959826836635
 30
0.0
 40
40.28522483636384
100
AcDbArc
 50
306.9721044409391
 51
0.0
  0
ARC
  5
456
330
1F
100
AcDbEntity
  8
1
  6
DASHED
 62
     2
100
AcDbCircle
 10
80.64321024845788
 20
103.5959826836667
 30
0.0
 40
40.3
100
AcDbArc
 50
180.0000000000003
 51
233.0
  0
ARC
  5
457
330
1F
100
AcDbEntity
  8
0
  6
Continuous
 62
     7
100
AcDbCircle
 10
233.9977825523049
 20
143.0959826836655
 30
0.0
 40
3.0
100
AcDbArc
 50
0.00000000000543
 51
90.00000000008578
  0
ARC
  5
458
330
1F
100
AcDbEntity
  8
0
  6
Continuous
 62
     7
100
AcDbCircle
 10
196.997782552305
 20
143.0959826836613
 30
0.0
 40
3.0
100
AcDbArc
 50
90.00000000000762
 51
180.0000000000076
  0
ARC
  5
459
330
1F
100
AcDbEntity
  8
0
  6
Continuous
 62
     7
100
AcDbCircle
 10
108.1432102484577
 20
103.5959826836607
 30
0.0
 40
7.499999999999991
100
AcDbArc
 50
54.11567091268972
 51
199.4712206344488
  0
ARC
  5
45A
330
1F
100
AcDbEntity
  8
0
  6
Continuous
 62
     7
100
AcDbCircle
 10
108.1432102484577
 20
103.5959826836607
 30
0.0
 40
5.099999999999634
100
AcDbArc
 50
124.7159487291244
 51
158.2980418694171
  0
ARC
  5
45B
330
1F
100
AcDbEntity
  8
0
  6
Continuous
 62
     7
100
AcDbCircle
 10
108.1430728945821
 20
103.5959086186564
 30
0.0
 40
2.400137355018565
100
AcDbArc
 50
0.00176807068176
 51
236.6695449037665
  0
ARC
  5
45C
330
1F
100
AcDbEntity
  8
0
  6
Continuous
 62
     7
100
AcDbCircle
 10
108.1433473192593
 20
103.5962363738072
 30
0.0
 40
2.399862942607363
100
AcDbArc
 50
303.2345897253517
 51
359.9939432481185
  0
ARC
  5
45D
330
1F
100
AcDbEntity
  8
0
  6
Continuous
 62
     7
100
AcDbCircle
 10
108.1427102486803
 20
103.595983039699
 30
0.0
 40
2.400000297625809
100
AcDbArc
 50
236.6777546275843
 51
303.2506256573633
  0
ARC
  5
45E
330
1F
100
AcDbEntity
  8
0
  6
Continuous
 62
     7
100
AcDbCircle
 10
108.1432102484558
 20
103.5959826836635
 30
0.0
 40
5.099999999996791
100
AcDbArc
 50
158.2980418694384
 51
270.0000000000236
  0
ARC
  5
45F
330
1F
100
AcDbEntity
  8
0
  6
Continuous
 62
     7
100
AcDbCircle
 10
108.1432102484558
 20
103.5959826836635
 30
0.0
 40
5.099999999996811
100
AcDbArc
 50
270.0000000000236
 51
124.7159487291247
  0
ARC
  5
460
330
1F
100
AcDbEntity
  8
0
  6
Continuous
 62
     7
100
AcDbCircle
 10
123.4356700097383
 20
88.79598292238478
 30
0.0
 40
7.70754023871571
100
AcDbArc
 50
267.4654502884346
 51
136.167660609213
  0
ARC
  5
461
330
1F
100
AcDbEntity
  8
0
  6
Continuous
 62
     7
100
AcDbCircle
 10
108.1432102484577
 20
103.5959826836607
 30
0.0
 40
7.500000000000216
100
AcDbArc
 50
199.4712206344488
 51
270.0000000000084
  0
ARC
  5
462
330
1F
100
AcDbEntity
  8
0
  6
Continuous
 62
     7
100
AcDbCircle
 10
108.1432102484577
 20
103.5959826836607
 30
0.0
 40
7.500000000000014
100
AcDbArc
 50
270.0000000000084
 51
274.5577561144069
  0
ARC
  5
463
330
1F
100
AcDbEntity
  8
0
  6
Continuous
 62
     7
100
AcDbCircle
 10
106.1432102484598
 20
89.79598268365913
 30
0.0
 40
2.399999999999303
100
AcDbArc
 50
238.9517780065403
 51
340.000000000004
  0
ARC
  5
464
330
1F
100
AcDbEntity
  8
0
  6
Continuous
 62
     7
100
AcDbCircle
 10
108.8583860920491
 20
94.62444304362435
 30
0.0
 40
1.500000000000026
100
AcDbArc
 50
340.0000000000015
 51
94.55775611441196
  0
ARC
  5
465
330
1F
100
AcDbEntity
  8
0
  6
Continuous
 62
     7
100
AcDbCircle
 10
102.8536881305726
 20
84.07796480154548
 30
0.0
 40
1.010477882108495
100
AcDbArc
 50
56.1819258985245
 51
180.0000000000064
  0
ARC
  5
466
330
1F
100
AcDbEntity
  8
0
  6
Continuous
 62
     7
100
AcDbCircle
 10
102.8432102484602
 20
84.89598268365916
 30
0.0
 40
3.499999999999299
100
AcDbArc
 50
58.95177800651901
 51
180.0
  0
ARC
  5
467
330
1F
100
AcDbEntity
  8
0
  6
Continuous
 62
     7
100
AcDbCircle
 10
106.1432102484631
 20
88.98844268366628
 30
0.0
 40
4.899999999999549
100
AcDbArc
 50
236.1819258985263
 51
316.1676606092102
  0
ARC
  5
468
330
1F
100
AcDbEntity
  8
0
  6
Continuous
 62
     7
100
AcDbCircle
 10
103.3432102484642
 20
82.59598268366767
 30
0.0
 40
1.5
100
AcDbArc
 50
179.9999999999957
 51
270.0
  0
ARC
  5
469
330
1F
100
AcDbEntity
  8
0
  6
Continuous
 62
     7
100
AcDbCircle
 10
103.343210248466
 20
82.59598268366591
 30
0.0
 40
4.000000000005087
100
AcDbArc
 50
180.0000000000733
 51
269.9999999999342
  0
ARC
  5
46A
330
1F
100
AcDbEntity
  8
0
  6
Continuous
 62
     7
100
AcDbCircle
 10
134.6432102484538
 20
89.09598268367125
 30
0.0
 40
1.000000000000227
100
AcDbArc
 50
90.00000000000651
 51
179.999999999987
  0
ARC
  5
46B
330
1F
100
AcDbEntity
  8
0
  6
Continuous
 62
     7
100
AcDbCircle
 10
136.14321024846
 20
85.59598268367205
 30
0.0
 40
6.899999999998434
100
AcDbArc
 50
86.00000000001215
 51
90.0000000000125
  0
ARC
  5
46C
330
1F
100
AcDbEntity
  8
0
  6
Continuous
 62
     7
100
AcDbCircle
 10
136.14321024846
 20
85.59598268367205
 30
0.0
 40
6.999999999998345
100
AcDbArc
 50
78.0000000000106
 51
86.00000000001123
  0
ARC
  5
46D
330
1F
100
AcDbEntity
  8
0
  6
Continuous
 62
     7
100
AcDbCircle
 10
136.14321024846
 20
85.59598268367205
 30
0.0
 40
6.899999999998284
100
AcDbArc
 50
54.0000000000048
 51
62.00000000000662
  0
ARC
  5
46E
330
1F
100
AcDbEntity
  8
0
  6
Continuous
 62
     7
100
AcDbCircle
 10
136.14321024846
 20
85.59598268367205
 30
0.0
 40
6.99999999999839
100
AcDbArc
 50
62.00000000000635
 51
70.00000000000807
  0
ARC
  5
46F
330
1F
100
AcDbEntity
  8
0
  6
Continuous
 62
     7
100
AcDbCircle
 10
136.14321024846
 20
85.59598268367205
 30
0.0
 40
6.899999999998371
100
AcDbArc
 50
70.00000000000846
 51
78.00000000001037
  0
ARC
  5
470
330
1F
100
AcDbEntity
  8
0
  6
Continuous
 62
     7
100
AcDbCircle
 10
136.1432102484646
 20
85.59598268366807
 30
0.0
 40
6.999999999994705
100
AcDbArc
 50
30.00000000001643
 51
38.00000000002333
  0
ARC
  5
471
330
1F
100
AcDbEntity
  8
0
  6
Continuous
 62
     7
100
AcDbCircle
 10
136.1432102484271
 20
85.59598268373298
 30
0.0
 40
6.89999999999457
100
AcDbArc
 50
29.59184579345411
 51
29.99999999939427
  0
ARC
  5
472
330
1F
100
AcDbEntity
  8
0
  6
Continuous
 62
     7
100
AcDbCircle
 10
136.1432102484612
 20
85.59598268367239
 30
0.0
 40
6.999999999997303
100
AcDbArc
 50
46.00000000000794
 51
54.00000000001059
  0
ARC
  5
473
330
1F
100
AcDbEntity
  8
0
  6
Continuous
 62
     7
100
AcDbCircle
 10
136.1432102484491
 20
85.59598268368615
 30
0.0
 40
6.899999999995857
100
AcDbArc
 50
37.99999999982477
 51
45.99999999985554
  0
ARC
  5
474
330
1F
100
AcDbEntity
  8
0
  6
Continuous
 62
     7
100
AcDbCircle
 10
136.1432102484638
 20
85.59598268366693
 30
0.0
 40
6.999999999995532
100
AcDbArc
 50
14.00000000001105
 51
22.00000000001667
  0
ARC
  5
475
330
1F
100
AcDbEntity
  8
0
  6
Continuous
 62
     7
100
AcDbCircle
 10
136.1432102484608
 20
85.59598268366534
 30
0.0
 40
6.999999999998343
100
AcDbArc
 50
342.0000000000109
 51
350.0000000000132
  0
ARC
  5
476
330
1F
100
AcDbEntity
  8
0
  6
Continuous
 62
     7
100
AcDbCircle
 10
136.1432102484637
 20
85.59598268366466
 30
0.0
 40
6.899999999996054
100
AcDbArc
 50
7.91368707074543
 51
14.00000000002987
  0
ARC
  5
477
330
1F
100
AcDbEntity
  8
0
  6
Continuous
 62
     7
100
AcDbCircle
 10
136.1432102484619
 20
85.59598268367506
 30
0.0
 40
6.899999999996498
100
AcDbArc
 50
5.99999999993704
 51
7.91368707065782
  0
ARC
  5
478
330
1F
100
AcDbEntity
  8
0
  6
Continuous
 62
     7
100
AcDbCircle
 10
136.1432102484625
 20
85.59598268366625
 30
0.0
 40
6.899999999996862
100
AcDbArc
 50
350.0000000000026
 51
358.0000000000064
  0
ARC
  5
479
330
1F
100
AcDbEntity
  8
0
  6
Continuous
 62
     7
100
AcDbCircle
 10
136.1432102484625
 20
85.59598268366625
 30
0.0
 40
6.999999999996792
100
AcDbArc
 50
358.0000000000066
 51
6.00000000001068
  0
ARC
  5
47A
330
1F
100
AcDbEntity
  8
0
  6
Continuous
 62
     7
100
AcDbCircle
 10
136.1432102484623
 20
85.59598268367148
 30
0.0
 40
6.899999999998522
100
AcDbArc
 50
336.5123915069831
 51
341.9999999999584
  0
ARC
  5
47B
330
1F
100
AcDbEntity
  8
0
  6
Continuous
 62
     7
100
AcDbCircle
 10
136.1432102484592
 20
85.59598268366608
 30
0.0
 40
6.99999999999995
100
AcDbArc
 50
326.0000000000092
 51
334.0000000000086
  0
ARC
  5
47C
330
1F
100
AcDbEntity
  8
0
  6
Continuous
 62
     7
100
AcDbCircle
 10
136.1432102484534
 20
85.59598268365204
 30
0.0
 40
6.899999999998959
100
AcDbArc
 50
334.000000000134
 51
336.5123915071606
  0
ARC
  5
47D
330
1F
100
AcDbEntity
  8
0
  6
Continuous
 62
     7
100
AcDbCircle
 10
136.14321024847
 20
85.59598268365636
 30
0.0
 40
6.899999999995106
100
AcDbArc
 50
24.39616528288586
 51
29.59184579418338
  0
ARC
  5
47E
330
1F
100
AcDbEntity
  8
0
  6
Continuous
 62
     7
100
AcDbCircle
 10
136.1432102484567
 20
85.59598268368455
 30
0.0
 40
6.899999999995456
100
AcDbArc
 50
21.99999999985864
 51
24.39616528262702
  0
ARC
  5
47F
330
1F
100
AcDbEntity
  8
0
  6
Continuous
 62
     7
100
AcDbCircle
 10
136.1432102484623
 20
85.59598268367148
 30
0.0
 40
4.499999999999886
100
AcDbArc
 50
270.0000000000076
 51
90.00000000000651
  0
ARC
  5
480
330
1F
100
AcDbEntity
  8
0
  6
Continuous
 62
     7
100
AcDbCircle
 10
134.6432102484546
 20
82.09598268367125
 30
0.0
 40
1.0
100
AcDbArc
 50
179.999999999987
 51
270.0000000000049
  0
ARC
  5
481
330
1F
100
AcDbEntity
  8
0
  6
Continuous
 62
     7
100
AcDbCircle
 10
136.1432102484709
 20
85.5959826836824
 30
0.0
 40
6.899999999999293
100
AcDbArc
 50
317.9999999998687
 51
325.9999999998425
  0
ARC
  5
482
330
1F
100
AcDbEntity
  8
0
  6
Continuous
 62
     7
100
AcDbCircle
 10
136.1432102484594
 20
85.59598268366938
 30
0.0
 40
6.999999999998813
100
AcDbArc
 50
278.0000000000067
 51
286.0000000000076
  0
ARC
  5
483
330
1F
100
AcDbEntity
  8
0
  6
Continuous
 62
     7
100
AcDbCircle
 10
136.1432102484594
 20
85.59598268366938
 30
0.0
 40
6.899999999998897
100
AcDbArc
 50
270.0000000000049
 51
278.0000000000059
  0
ARC
  5
484
330
1F
100
AcDbEntity
  8
0
  6
Continuous
 62
     7
100
AcDbCircle
 10
136.1432102484594
 20
85.59598268366938
 30
0.0
 40
6.899999999998829
100
AcDbArc
 50
286.000000000008
 51
294.0000000000093
  0
ARC
  5
485
330
1F
100
AcDbEntity
  8
0
  6
Continuous
 62
     7
100
AcDbCircle
 10
136.1432102484594
 20
85.59598268366938
 30
0.0
 40
6.999999999998971
100
AcDbArc
 50
294.0000000000092
 51
302.0000000000107
  0
ARC
  5
486
330
1F
100
AcDbEntity
  8
0
  6
Continuous
 62
     7
100
AcDbCircle
 10
136.1432102484594
 20
85.59598268366938
 30
0.0
 40
6.899999999998916
100
AcDbArc
 50
302.0000000000103
 51
310.0000000000123
  0
ARC
  5
487
330
1F
100
AcDbEntity
  8
0
  6
Continuous
 62
     7
100
AcDbCircle
 10
136.143210248461
 20
85.59598268367017
 30
0.0
 40
6.999999999998538
100
AcDbArc
 50
309.9999999999965
 51
317.9999999999999
  0
ARC
  5
488
330
1F
100
AcDbEntity
  8
0
  6
Continuous
 62
     7
100
AcDbCircle
 10
80.64321024845788
 20
103.5959826836667
 30
0.0
 40
5.099999999999795
100
AcDbArc
 50
180.0
 51
21.70195813058076
  0
ARC
  5
489
330
1F
100
AcDbEntity
  8
0
  6
Continuous
 62
     7
100
AcDbCircle
 10
80.64321024845788
 20
103.5959826836667
 30
0.0
 40
7.500000000000909
100
AcDbArc
 50
270.0
 51
340.5287793655018
  0
ARC
  5
48A
330
1F
100
AcDbEntity
  8
0
  6
Continuous
 62
     7
100
AcDbCircle
 10
80.64321024845788
 20
103.5959826836667
 30
0.0
 40
5.099999999999503
100
AcDbArc
 50
21.70195813058076
 51
55.28405127087439
  0
ARC
  5
48B
330
1F
100
AcDbEntity
  8
0
  6
Continuous
 62
     7
100
AcDbCircle
 10
85.94321024845536
 20
84.89598268366518
 30
0.0
 40
3.499999999999204
100
AcDbArc
 50
0.0
 51
121.0482219934844
  0
ARC
  5
48C
330
1F
100
AcDbEntity
  8
0
  6
Continuous
 62
     7
100
AcDbCircle
 10
65.35075048717718
 20
88.79598292238467
 30
0.0
 40
7.707540238715628
100
AcDbArc
 50
43.83233939078863
 51
267.4654502884205
  0
ARC
  5
48D
330
1F
100
AcDbEntity
  8
0
  6
Continuous
 62
     7
100
AcDbCircle
 10
80.64321024845788
 20
103.5959826836667
 30
0.0
 40
5.099999999999451
100
AcDbArc
 50
55.28405127087439
 51
180.0
  0
ARC
  5
48E
330
1F
100
AcDbEntity
  8
0
  6
Continuous
 62
     7
100
AcDbCircle
 10
82.64321024845248
 20
88.98844268366639
 30
0.0
 40
4.899999999999476
100
AcDbArc
 50
223.8323393907893
 51
303.8180741014729
  0
ARC
  5
48F
330
1F
100
AcDbEntity
  8
0
  6
Continuous
 62
     7
100
AcDbCircle
 10
54.14321024846173
 20
89.09598268367125
 30
0.0
 40
1.000000000000014
100
AcDbArc
 50
0.00000000001303
 51
89.99999999999511
  0
ARC
  5
490
330
1F
100
AcDbEntity
  8
0
  6
Continuous
 62
     7
100
AcDbCircle
 10
54.14321024846093
 20
82.09598268367148
 30
0.0
 40
1.000000000000114
100
AcDbArc
 50
269.9999999999935
 51
359.9999999999935
  0
ARC
  5
491
330
1F
100
AcDbEntity
  8
0
  6
Continuous
 62
     7
100
AcDbCircle
 10
52.64321024845528
 20
85.59598268367239
 30
0.0
 40
6.999999999998066
100
AcDbArc
 50
93.99999999998624
 51
101.9999999999889
  0
ARC
  5
492
330
1F
100
AcDbEntity
  8
0
  6
Continuous
 62
     7
100
AcDbCircle
 10
52.64321024845661
 20
85.59598268367068
 30
0.0
 40
6.899999999999864
100
AcDbArc
 50
89.99999999999575
 51
93.99999999999613
  0
ARC
  5
493
330
1F
100
AcDbEntity
  8
0
  6
Continuous
 62
     7
100
AcDbCircle
 10
52.64321024845528
 20
85.59598268367239
 30
0.0
 40
6.899999999998023
100
AcDbArc
 50
101.9999999999884
 51
109.9999999999907
  0
ARC
  5
494
330
1F
100
AcDbEntity
  8
0
  6
Continuous
 62
     7
100
AcDbCircle
 10
52.64321024845528
 20
85.59598268367239
 30
0.0
 40
6.999999999997924
100
AcDbArc
 50
109.9999999999913
 51
117.9999999999933
  0
ARC
  5
495
330
1F
100
AcDbEntity
  8
0
  6
Continuous
 62
     7
100
AcDbCircle
 10
52.64321024845528
 20
85.59598268367239
 30
0.0
 40
6.899999999997889
100
AcDbArc
 50
117.9999999999934
 51
125.999999999996
  0
ARC
  5
496
330
1F
100
AcDbEntity
  8
0
  6
Continuous
 62
     7
100
AcDbCircle
 10
52.64321024845528
 20
85.59598268367239
 30
0.0
 40
6.999999999997908
100
AcDbArc
 50
125.9999999999957
 51
133.9999999999983
  0
ARC
  5
497
330
1F
100
AcDbEntity
  8
0
  6
Continuous
 62
     7
100
AcDbCircle
 10
52.64321024845314
 20
85.59598268367148
 30
0.0
 40
4.500000000000227
100
AcDbArc
 50
89.99999999999376
 51
269.9999999999939
  0
ARC
  5
498
330
1F
100
AcDbEntity
  8
0
  6
Continuous
 62
     7
100
AcDbCircle
 10
79.92803440486648
 20
94.62444304363038
 30
0.0
 40
1.499999999999961
100
AcDbArc
 50
85.44224388559182
 51
200.0000000000026
  0
ARC
  5
499
330
1F
100
AcDbEntity
  8
0
  6
Continuous
 62
     7
100
AcDbCircle
 10
80.64321024846859
 20
103.5959826836663
 30
0.0
 40
7.500000000000482
100
AcDbArc
 50
265.4422438855105
 51
269.9999999999182
  0
ARC
  5
49A
330
1F
100
AcDbEntity
  8
0
  6
Continuous
 62
     7
100
AcDbCircle
 10
82.6432102484558
 20
89.79598268366516
 30
0.0
 40
2.3999999999996
100
AcDbArc
 50
199.9999999999989
 51
301.048221993456
  0
ARC
  5
49B
330
1F
100
AcDbEntity
  8
0
  6
Continuous
 62
     7
100
AcDbCircle
 10
85.44321024845127
 20
82.59598268366784
 30
0.0
 40
1.5
100
AcDbArc
 50
270.0
 51
0.0
  0
ARC
  5
49C
330
1F
100
AcDbEntity
  8
0
  6
Continuous
 62
     7
100
AcDbCircle
 10
85.93273236634289
 20
84.07796480154553
 30
0.0
 40
1.010477882108603
100
AcDbArc
 50
359.9999999999968
 51
123.8180741014737
  0
ARC
  5
49D
330
1F
100
AcDbEntity
  8
0
  6
Continuous
 62
     7
100
AcDbCircle
 10
80.64321024845788
 20
103.5959826836667
 30
0.0
 40
7.499999999999955
100
AcDbArc
 50
340.5287793655018
 51
125.8843290873097
  0
ARC
  5
49E
330
1F
100
AcDbEntity
  8
0
  6
Continuous
 62
     7
100
AcDbCircle
 10
52.64321024845528
 20
85.59598268367239
 30
0.0
 40
6.899999999997988
100
AcDbArc
 50
133.9999999999985
 51
142.0000000000002
  0
ARC
  5
49F
330
1F
100
AcDbEntity
  8
0
  6
Continuous
 62
     7
100
AcDbCircle
 10
52.64321024845314
 20
85.59598268367148
 30
0.0
 40
6.999999999996949
100
AcDbArc
 50
141.9999999999836
 51
149.9999999999871
  0
ARC
  5
4A0
330
1F
100
AcDbEntity
  8
0
  6
Continuous
 62
     7
100
AcDbCircle
 10
52.64321024845451
 20
85.59598268367012
 30
0.0
 40
6.899999999998279
100
AcDbArc
 50
213.9999999999981
 51
222.0000000000007
  0
ARC
  5
4A1
330
1F
100
AcDbEntity
  8
0
  6
Continuous
 62
     7
100
AcDbCircle
 10
52.64321024847554
 20
85.59598268371059
 30
0.0
 40
6.899999999996707
100
AcDbArc
 50
150.0000000003609
 51
150.408154206296
  0
ARC
  5
4A2
330
1F
100
AcDbEntity
  8
0
  6
Continuous
 62
     7
100
AcDbCircle
 10
52.64321024843891
 20
85.59598268363749
 30
0.0
 40
6.899999999996297
100
AcDbArc
 50
156.5123915067131
 51
157.999999999685
  0
ARC
  5
4A3
330
1F
100
AcDbEntity
  8
0
  6
Continuous
 62
     7
100
AcDbCircle
 10
52.64321024845619
 20
85.59598268367756
 30
0.0
 40
6.899999999996206
100
AcDbArc
 50
150.4081542059782
 51
156.5123915070755
  0
ARC
  5
4A4
330
1F
100
AcDbEntity
  8
0
  6
Continuous
 62
     7
100
AcDbCircle
 10
52.64321024845451
 20
85.59598268367012
 30
0.0
 40
6.999999999998285
100
AcDbArc
 50
205.999999999997
 51
213.9999999999983
  0
ARC
  5
4A5
330
1F
100
AcDbEntity
  8
0
  6
Continuous
 62
     7
100
AcDbCircle
 10
52.6432102484376
 20
85.59598268370445
 30
0.0
 40
6.899999999998054
100
AcDbArc
 50
204.3961652830831
 51
206.0000000003149
  0
ARC
  5
4A6
330
1F
100
AcDbEntity
  8
0
  6
Continuous
 62
     7
100
AcDbCircle
 10
52.64321024845314
 20
85.59598268367148
 30
0.0
 40
6.999999999996768
100
AcDbArc
 50
157.999999999991
 51
165.9999999999949
  0
ARC
  5
4A7
330
1F
100
AcDbEntity
  8
0
  6
Continuous
 62
     7
100
AcDbCircle
 10
52.6432102484571
 20
85.59598268366113
 30
0.0
 40
6.899999999997918
100
AcDbArc
 50
197.9999999999166
 51
204.3961652826887
  0
ARC
  5
4A8
330
1F
100
AcDbEntity
  8
0
  6
Continuous
 62
     7
100
AcDbCircle
 10
52.64321024845314
 20
85.59598268367148
 30
0.0
 40
6.899999999996806
100
AcDbArc
 50
165.999999999995
 51
173.9999999999992
  0
ARC
  5
4A9
330
1F
100
AcDbEntity
  8
0
  6
Continuous
 62
     7
100
AcDbCircle
 10
52.64321024845171
 20
85.59598268368046
 30
0.0
 40
6.899999999997208
100
AcDbArc
 50
187.9136870708032
 51
190.0000000000817
  0
ARC
  5
4AA
330
1F
100
AcDbEntity
  8
0
  6
Continuous
 62
     7
100
AcDbCircle
 10
52.64321024845421
 20
85.5959826836675
 30
0.0
 40
6.899999999997885
100
AcDbArc
 50
181.9999999999687
 51
187.9136870706938
  0
ARC
  5
4AB
330
1F
100
AcDbEntity
  8
0
  6
Continuous
 62
     7
100
AcDbCircle
 10
52.64321024845279
 20
85.59598268366864
 30
0.0
 40
6.9999999999962
100
AcDbArc
 50
189.9999999999832
 51
197.9999999999881
  0
ARC
  5
4AC
330
1F
100
AcDbEntity
  8
0
  6
Continuous
 62
     7
100
AcDbCircle
 10
52.6432102484531
 20
85.59598268367034
 30
0.0
 40
6.999999999996872
100
AcDbArc
 50
173.9999999999895
 51
181.9999999999933
  0
ARC
  5
4AD
330
1F
100
AcDbEntity
  8
0
  6
Continuous
 62
     7
100
AcDbCircle
 10
52.64321024845451
 20
85.59598268367012
 30
0.0
 40
6.999999999998529
100
AcDbArc
 50
222.0000000000012
 51
230.0000000000027
  0
ARC
  5
4AE
330
1F
100
AcDbEntity
  8
0
  6
Continuous
 62
     7
100
AcDbCircle
 10
52.64321024845604
 20
85.59598268366938
 30
0.0
 40
6.89999999999891
100
AcDbArc
 50
229.9999999999882
 51
237.9999999999903
  0
ARC
  5
4AF
330
1F
100
AcDbEntity
  8
0
  6
Continuous
 62
     7
100
AcDbCircle
 10
52.64321024845661
 20
85.59598268367068
 30
0.0
 40
7.000000000000381
100
AcDbArc
 50
237.9999999999928
 51
245.9999999999916
  0
ARC
  5
4B0
330
1F
100
AcDbEntity
  8
0
  6
Continuous
 62
     7
100
AcDbCircle
 10
52.64321024845661
 20
85.59598268367068
 30
0.0
 40
6.900000000000255
100
AcDbArc
 50
245.9999999999923
 51
253.9999999999903
  0
ARC
  5
4B1
330
1F
100
AcDbEntity
  8
0
  6
Continuous
 62
     7
100
AcDbCircle
 10
52.64321024845661
 20
85.59598268367068
 30
0.0
 40
6.900000000000197
100
AcDbArc
 50
261.9999999999916
 51
269.999999999991
  0
ARC
  5
4B2
330
1F
100
AcDbEntity
  8
0
  6
Continuous
 62
     7
100
AcDbCircle
 10
52.64321024845661
 20
85.59598268367068
 30
0.0
 40
7.000000000000286
100
AcDbArc
 50
253.9999999999914
 51
261.999999999991
  0
ARC
  5
4B3
330
1F
100
AcDbEntity
  8
0
  6
Continuous
 62
     7
100
AcDbCircle
 10
85.4432102484524
 20
82.59598268366898
 30
0.0
 40
4.000000000002217
100
AcDbArc
 50
270.0000000000252
 51
359.9999999999674
  0
ARC
  5
4B4
330
1F
100
AcDbEntity
  8
0
  6
Continuous
 62
     7
100
AcDbCircle
 10
61.64271024845779
 20
143.0959826836651
 30
0.0
 40
3.0
100
AcDbArc
 50
90.0
 51
180.0
  0
ARC
  5
4B5
330
1F
100
AcDbEntity
  8
0
  6
Continuous
 62
     7
100
AcDbCircle
 10
92.14271024845786
 20
127.6059826836658
 30
0.0
 40
0.25
100
AcDbArc
 50
180.0
 51
0.0
  0
ARC
  5
4B6
330
1F
100
AcDbEntity
  8
0
  6
Continuous
 62
     7
100
AcDbCircle
 10
93.14271024845786
 20
127.0396492948016
 30
0.0
 40
0.25
100
AcDbArc
 50
180.0
 51
240.0293843500164
  0
ARC
  5
4B7
330
1F
100
AcDbEntity
  8
0
  6
Continuous
 62
     7
100
AcDbCircle
 10
94.14271024845786
 20
127.6059826836658
 30
0.0
 40
0.25
100
AcDbArc
 50
180.0
 51
0.0
  0
ARC
  5
4B8
330
1F
100
AcDbEntity
  8
0
  6
Continuous
 62
     7
100
AcDbCircle
 10
92.14271024845786
 20
129.5859826836658
 30
0.0
 40
0.25
100
AcDbArc
 50
0.0
 51
180.0
  0
ARC
  5
4B9
330
1F
100
AcDbEntity
  8
0
  6
Continuous
 62
     7
100
AcDbCircle
 10
93.14271024845786
 20
130.15231607253
 30
0.0
 40
0.25
100
AcDbArc
 50
0.0
 51
180.0
  0
ARC
  5
4BA
330
1F
100
AcDbEntity
  8
0
  6
Continuous
 62
     7
100
AcDbCircle
 10
94.14271024845786
 20
130.7289827391967
 30
0.0
 40
0.2499999999999391
100
AcDbArc
 50
36.74339513780115
 51
180.0
  0
ARC
  5
4BB
330
1F
100
AcDbEntity
  8
0
  6
Continuous
 62
     7
100
AcDbCircle
 10
98.14271024845786
 20
127.6163159614683
 30
0.0
 40
0.2499999999999631
100
AcDbArc
 50
299.9706156499723
 51
119.9706156499852
  0
ARC
  5
4BC
330
1F
100
AcDbEntity
  8
0
  6
Continuous
 62
     7
100
AcDbCircle
 10
97.14271024845786
 20
127.0396492948016
 30
0.0
 40
0.25
100
AcDbArc
 50
180.0
 51
299.9706156499723
  0
ARC
  5
4BD
330
1F
100
AcDbEntity
  8
0
  6
Continuous
 62
     7
100
AcDbCircle
 10
96.14271024845786
 20
126.4629826281349
 30
0.0
 40
0.25
100
AcDbArc
 50
180.0
 51
0.0
  0
ARC
  5
4BE
330
1F
100
AcDbEntity
  8
0
  6
Continuous
 62
     7
100
AcDbCircle
 10
97.14271024845786
 20
130.15231607253
 30
0.0
 40
0.2500000000000492
100
AcDbArc
 50
60.02938435003906
 51
180.0
  0
ARC
  5
4BF
330
1F
100
AcDbEntity
  8
0
  6
Continuous
 62
     7
100
AcDbCircle
 10
98.14271024845786
 20
129.5756494058634
 30
0.0
 40
0.2499999999999791
100
AcDbArc
 50
240.0293843500148
 51
60.02938435002605
  0
ARC
  5
4C0
330
1F
100
AcDbEntity
  8
0
  6
Continuous
 62
     7
100
AcDbCircle
 10
96.14271024845786
 20
130.7289827391967
 30
0.0
 40
0.25
100
AcDbArc
 50
0.0
 51
143.256604862191
  0
ARC
  5
4C1
330
1F
100
AcDbEntity
  8
0
  6
Continuous
 62
     7
100
AcDbCircle
 10
98.14271024845786
 20
128.5959826836658
 30
0.0
 40
0.25
100
AcDbArc
 50
270.0
 51
90.0
  0
ARC
  5
4C2
330
1F
100
AcDbEntity
  8
0
  6
Continuous
 62
     7
100
AcDbCircle
 10
95.14271024845786
 20
125.8863159614683
 30
0.0
 40
0.2499999999999791
100
AcDbArc
 50
240.0293843500148
 51
60.02938435002768
  0
ARC
  5
4C3
330
1F
100
AcDbEntity
  8
0
  6
Continuous
 62
     7
100
AcDbCircle
 10
128.6427102484579
 20
143.0959826836651
 30
0.0
 40
3.0
100
AcDbArc
 50
0.0
 51
90.0000000000038
  0
CIRCLE
  5
4C4
330
1F
100
AcDbEntity
  8
0
  6
Continuous
 62
     7
100
AcDbCircle
 10
116.6432102484614
 20
99.59598268366898
 30
0.0
 40
3.0
  0
CIRCLE
  5
4C5
330
1F
100
AcDbEntity
  8
0
  6
Continuous
 62
     7
100
AcDbCircle
 10
72.14321024845418
 20
99.59598268366909
 30
0.0
 40
3.000000000000085
  0
CIRCLE
  5
4C6
330
1F
100
AcDbEntity
  8
0
  6
Continuous
 62
     7
100
AcDbCircle
 10
80.64321024845788
 20
103.5959826836667
 30
0.0
 40
2.400000000000006
  0
SPLINE
  5
4C7
330
1F
100
AcDbEntity
  8
0
  6
Continuous
 62
     7
100
AcDbSpline
210
0.0
220
0.0
230
1.0
 70
     8
 71
     3
 72
    11
 73
     7
 74
     5
 42
0.000000001
 43
0.0000000001
 44
0.00000001
 40
0.0
 40
0.0
 40
0.0
 40
0.0
 40
0.8613927004914317
 40
1.81987984321289
 40
2.900901536897982
 40
4.060775726360814
 40
4.060775726360814
 40
4.060775726360814
 40
4.060775726360814
 10
191.9432100335115
 20
97.66022040109226
 30
0.0
 10
191.9929141676379
 20
97.3708372625659
 30
0.0
 10
192.0979249990753
 20
96.75945230780623
 30
0.0
 10
192.8292275307015
 20
96.05228508122198
 30
0.0
 10
193.8030604411712
 20
95.58038730344843
 30
0.0
 10
194.5543480819978
 20
95.52071752046294
 30
0.0
 10
194.9432100335118
 20
95.48983280791134
 30
0.0
 11
191.9432100335115
 21
97.66022040109226
 31
0.0
 11
192.1715798631308
 21
96.82965155271911
 31
0.0
 11
192.8218896899521
 21
96.12552461615078
 31
0.0
 11
193.7951632270575
 21
95.65504982286541
 31
0.0
 11
194.9432100335118
 21
95.48983280791134
 31
0.0
  0
SPLINE
  5
4C8
330
1F
100
AcDbEntity
  8
0
  6
Continuous
 62
     7
100
AcDbSpline
210
0.0
220
0.0
230
1.0
 70
     8
 71
     3
 72
    11
 73
     7
 74
     5
 42
0.000000001
 43
0.0000000001
 44
0.00000001
 40
0.0
 40
0.0
 40
0.0
 40
0.0
 40
1.159874189462838
 40
2.240895883147985
 40
3.199383025869464
 40
4.060775726360877
 40
4.060775726360877
 40
4.060775726360877
 40
4.060775726360877
 10
235.9432100335117
 20
95.489832807916
 30
0.0
 10
236.3320719850257
 20
95.52071752046767
 30
0.0
 10
237.0833596258523
 20
95.58038730345338
 30
0.0
 10
238.0571925363218
 20
96.05228508122707
 30
0.0
 10
238.788495067948
 20
96.75945230781166
 30
0.0
 10
238.8935058993851
 20
97.37083726257127
 30
0.0
 10
238.9432100335115
 20
97.66022040109766
 30
0.0
 11
235.9432100335117
 21
95.489832807916
 31
0.0
 11
237.0912568399659
 21
95.65504982287031
 31
0.0
 11
238.0645303770713
 21
96.12552461615593
 31
0.0
 11
238.7148402038924
 21
96.82965155272447
 31
0.0
 11
238.9432100335115
 21
97.66022040109766
 31
0.0
  0
SPLINE
  5
4C9
330
1F
100
AcDbEntity
  8
0
  6
Continuous
 62
     7
100
AcDbSpline
210
0.0
220
0.0
230
1.0
 70
     8
 71
     3
 72
    11
 73
     7
 74
     5
 42
0.000000001
 43
0.0000000001
 44
0.00000001
 40
0.0
 40
0.0
 40
0.0
 40
0.0
 40
0.8613927004914317
 40
1.81987984321289
 40
2.900901536897982
 40
4.060775726360814
 40
4.060775726360814
 40
4.060775726360814
 40
4.060775726360814
 10
191.9432100335115
 20
97.66022040109226
 30
0.0
 10
191.9929141676379
 20
97.3708372625659
 30
0.0
 10
192.0979249990753
 20
96.75945230780623
 30
0.0
 10
192.8292275307015
 20
96.05228508122198
 30
0.0
 10
193.8030604411712
 20
95.58038730344843
 30
0.0
 10
194.5543480819978
 20
95.52071752046294
 30
0.0
 10
194.9432100335118
 20
95.48983280791134
 30
0.0
 11
191.9432100335115
 21
97.66022040109226
 31
0.0
 11
192.1715798631308
 21
96.82965155271911
 31
0.0
 11
192.8218896899521
 21
96.12552461615078
 31
0.0
 11
193.7951632270575
 21
95.65504982286541
 31
0.0
 11
194.9432100335118
 21
95.48983280791134
 31
0.0
  0
SPLINE
  5
4CA
330
1F
100
AcDbEntity
  8
0
  6
Continuous
 62
     7
100
AcDbSpline
210
0.0
220
0.0
230
1.0
 70
     8
 71
     3
 72
    11
 73
     7
 74
     5
 42
0.000000001
 43
0.0000000001
 44
0.00000001
 40
0.0
 40
0.0
 40
0.0
 40
0.0
 40
1.159874189462838
 40
2.240895883147985
 40
3.199383025869464
 40
4.060775726360877
 40
4.060775726360877
 40
4.060775726360877
 40
4.060775726360877
 10
235.9432100335117
 20
95.489832807916
 30
0.0
 10
236.3320719850257
 20
95.52071752046767
 30
0.0
 10
237.0833596258523
 20
95.58038730345338
 30
0.0
 10
238.0571925363218
 20
96.05228508122707
 30
0.0
 10
238.788495067948
 20
96.75945230781166
 30
0.0
 10
238.8935058993851
 20
97.37083726257127
 30
0.0
 10
238.9432100335115
 20
97.66022040109766
 30
0.0
 11
235.9432100335117
 21
95.489832807916
 31
0.0
 11
237.0912568399659
 21
95.65504982287031
 31
0.0
 11
238.0645303770713
 21
96.12552461615593
 31
0.0
 11
238.7148402038924
 21
96.82965155272447
 31
0.0
 11
238.9432100335115
 21
97.66022040109766
 31
0.0
  0
LWPOLYLINE
  5
4CB
330
1F
100
AcDbEntity
  8
0
  6
Continuous
 62
     7
 60
     1
100
AcDbPolyline
 90
        2
 70
     0
 43
0.0
 10
-1292.259491397352
 20
2865.584175384571
 10
-1256.175787086604
 20
2875.043346856432
  0
LWPOLYLINE
  5
4CC
330
1F
100
AcDbEntity
  8
0
  6
Continuous
 62
     7
 60
     1
100
AcDbPolyline
 90
        2
 70
     0
 43
0.0
 10
-1577.259491397353
 20
2865.584175384571
 10
-1541.175787086613
 20
2847.143346856442
  0
LWPOLYLINE
  5
4CD
330
1F
100
AcDbEntity
  8
0
  6
Continuous
 62
     7
 60
     1
100
AcDbPolyline
 90
        2
 70
     0
 43
0.0
 10
-1693.653710379644
 20
2865.584175384571
 10
-1657.570006068893
 20
2842.143346856442
  0
LWPOLYLINE
  5
4CE
330
1F
100
AcDbEntity
  8
0
  6
Continuous
 62
     7
 60
     1
100
AcDbPolyline
 90
        2
 70
     0
 43
0.0
 10
-1292.259491397352
 20
2865.584175384571
 10
-1256.175787086604
 20
2875.043346856432
  0
LWPOLYLINE
  5
4CF
330
1F
100
AcDbEntity
  8
0
  6
Continuous
 62
     7
 60
     1
100
AcDbPolyline
 90
        2
 70
     0
 43
0.0
 10
-1577.259491397353
 20
2865.584175384571
 10
-1541.175787086613
 20
2847.143346856442
  0
LWPOLYLINE
  5
4D0
330
1F
100
AcDbEntity
  8
0
  6
Continuous
 62
     7
 60
     1
100
AcDbPolyline
 90
        2
 70
     0
 43
0.0
 10
-1693.653710379644
 20
2865.584175384571
 10
-1657.570006068893
 20
2842.143346856442
  0
LWPOLYLINE
  5
4D1
330
1F
100
AcDbEntity
  8
0
  6
Continuous
 62
     7
 60
     1
100
AcDbPolyline
 90
        2
 70
     0
 43
0.0
 10
-1298.486910752191
 20
2869.758620949088
 10
-1262.403206441443
 20
2879.217792420947
  0
LWPOLYLINE
  5
4D2
330
1F
100
AcDbEntity
  8
0
  6
Continuous
 62
     7
 60
     1
100
AcDbPolyline
 90
        2
 70
     0
 43
0.0
 10
-1583.486910752192
 20
2869.758620949088
 10
-1547.403206441452
 20
2851.317792420957
  0
LWPOLYLINE
  5
4D3
330
1F
100
AcDbEntity
  8
0
  6
Continuous
 62
     7
 60
     1
100
AcDbPolyline
 90
        2
 70
     0
 43
0.0
 10
-1699.881129734484
 20
2869.758620949088
 10
-1663.797425423732
 20
2846.317792420957
  0
LWPOLYLINE
  5
4D4
330
1F
100
AcDbEntity
  8
0
  6
Continuous
 62
     7
 60
     1
100
AcDbPolyline
 90
        2
 70
     0
 43
0.0
 10
-1280.212493025452
 20
2871.091172549774
 10
-1244.128788714704
 20
2880.550344021634
  0
LWPOLYLINE
  5
4D5
330
1F
100
AcDbEntity
  8
0
  6
Continuous
 62
     7
 60
     1
100
AcDbPolyline
 90
        2
 70
     0
 43
0.0
 10
-1565.212493025453
 20
2871.091172549774
 10
-1529.128788714713
 20
2852.650344021644
  0
LWPOLYLINE
  5
4D6
330
1F
100
AcDbEntity
  8
0
  6
Continuous
 62
     7
 60
     1
100
AcDbPolyline
 90
        2
 70
     0
 43
0.0
 10
-1681.606712007744
 20
2871.091172549774
 10
-1645.523007696993
 20
2847.650344021644
  0
LWPOLYLINE
  5
4D7
330
1F
100
AcDbEntity
  8
0
  6
Continuous
 62
     7
 60
     1
100
AcDbPolyline
 90
        2
 70
     0
 43
0.0
 10
-1280.212493025452
 20
2871.091172549774
 10
-1244.128788714704
 20
2880.550344021634
  0
LWPOLYLINE
  5
4D8
330
1F
100
AcDbEntity
  8
0
  6
Continuous
 62
     7
 60
     1
100
AcDbPolyline
 90
        2
 70
     0
 43
0.0
 10
-1565.212493025453
 20
2871.091172549774
 10
-1529.128788714713
 20
2852.650344021644
  0
LWPOLYLINE
  5
4D9
330
1F
100
AcDbEntity
  8
0
  6
Continuous
 62
     7
 60
     1
100
AcDbPolyline
 90
        2
 70
     0
 43
0.0
 10
-1681.606712007744
 20
2871.091172549774
 10
-1645.523007696993
 20
2847.650344021644
  0
LWPOLYLINE
  5
4DA
330
1F
100
AcDbEntity
  8
0
  6
Continuous
 62
     7
 60
     1
100
AcDbPolyline
 90
        2
 70
     0
 43
0.0
 10
-1286.439912380291
 20
2875.265618114291
 10
-1250.356208069543
 20
2884.72478958615
  0
LWPOLYLINE
  5
4DB
330
1F
100
AcDbEntity
  8
0
  6
Continuous
 62
     7
 60
     1
100
AcDbPolyline
 90
        2
 70
     0
 43
0.0
 10
-1571.439912380293
 20
2875.265618114291
 10
-1535.356208069552
 20
2856.82478958616
  0
LWPOLYLINE
  5
4DC
330
1F
100
AcDbEntity
  8
0
  6
Continuous
 62
     7
 60
     1
100
AcDbPolyline
 90
        2
 70
     0
 43
0.0
 10
-1687.834131362584
 20
2875.265618114291
 10
-1651.750427051832
 20
2851.82478958616
  0
LWPOLYLINE
  5
4DD
330
1F
100
AcDbEntity
  8
0
  6
Continuous
 62
     7
 60
     1
100
AcDbPolyline
 90
        2
 70
     0
 43
0.0
 10
-1026.650881875615
 20
3105.427142886015
 10
-990.5671775648669
 20
3114.886314357876
  0
LWPOLYLINE
  5
4DE
330
1F
100
AcDbEntity
  8
0
  6
Continuous
 62
     7
 60
     1
100
AcDbPolyline
 90
        2
 70
     0
 43
0.0
 10
-1311.650881875616
 20
3105.427142886015
 10
-1275.567177564876
 20
3086.986314357886
  0
LWPOLYLINE
  5
4DF
330
1F
100
AcDbEntity
  8
0
  6
Continuous
 62
     7
 60
     1
100
AcDbPolyline
 90
        2
 70
     0
 43
0.0
 10
-1428.045100857907
 20
3105.427142886015
 10
-1391.961396547156
 20
3081.986314357886
  0
LWPOLYLINE
  5
4E0
330
1F
100
AcDbEntity
  8
0
  6
Continuous
 62
     7
 60
     1
100
AcDbPolyline
 90
        2
 70
     0
 43
0.0
 10
-1026.650881875615
 20
3105.427142886015
 10
-990.5671775648669
 20
3114.886314357876
  0
LWPOLYLINE
  5
4E1
330
1F
100
AcDbEntity
  8
0
  6
Continuous
 62
     7
 60
     1
100
AcDbPolyline
 90
        2
 70
     0
 43
0.0
 10
-1311.650881875616
 20
3105.427142886015
 10
-1275.567177564876
 20
3086.986314357886
  0
LWPOLYLINE
  5
4E2
330
1F
100
AcDbEntity
  8
0
  6
Continuous
 62
     7
 60
     1
100
AcDbPolyline
 90
        2
 70
     0
 43
0.0
 10
-1428.045100857907
 20
3105.427142886015
 10
-1391.961396547156
 20
3081.986314357886
  0
LWPOLYLINE
  5
4E3
330
1F
100
AcDbEntity
  8
0
  6
Continuous
 62
     7
 60
     1
100
AcDbPolyline
 90
        2
 70
     0
 43
0.0
 10
-1032.878301230454
 20
3109.601588450532
 10
-996.7945969197059
 20
3119.060759922391
  0
LWPOLYLINE
  5
4E4
330
1F
100
AcDbEntity
  8
0
  6
Continuous
 62
     7
 60
     1
100
AcDbPolyline
 90
        2
 70
     0
 43
0.0
 10
-1317.878301230455
 20
3109.601588450532
 10
-1281.794596919715
 20
3091.160759922401
  0
LWPOLYLINE
  5
4E5
330
1F
100
AcDbEntity
  8
0
  6
Continuous
 62
     7
 60
     1
100
AcDbPolyline
 90
        2
 70
     0
 43
0.0
 10
-1434.272520212747
 20
3109.601588450532
 10
-1398.188815901995
 20
3086.160759922401
  0
LWPOLYLINE
  5
4E6
330
1F
100
AcDbEntity
  8
0
  6
Continuous
 62
     7
 60
     1
100
AcDbPolyline
 90
        2
 70
     0
 43
0.0
 10
-1014.603883503715
 20
3110.934140051218
 10
-978.520179192967
 20
3120.393311523078
  0
LWPOLYLINE
  5
4E7
330
1F
100
AcDbEntity
  8
0
  6
Continuous
 62
     7
 60
     1
100
AcDbPolyline
 90
        2
 70
     0
 43
0.0
 10
-1299.603883503716
 20
3110.934140051218
 10
-1263.520179192976
 20
3092.493311523088
  0
LWPOLYLINE
  5
4E8
330
1F
100
AcDbEntity
  8
0
  6
Continuous
 62
     7
 60
     1
100
AcDbPolyline
 90
        2
 70
     0
 43
0.0
 10
-1415.998102486007
 20
3110.934140051218
 10
-1379.914398175256
 20
3087.493311523088
  0
LWPOLYLINE
  5
4E9
330
1F
100
AcDbEntity
  8
0
  6
Continuous
 62
     7
 60
     1
100
AcDbPolyline
 90
        2
 70
     0
 43
0.0
 10
-1014.603883503715
 20
3110.934140051218
 10
-978.520179192967
 20
3120.393311523078
  0
LWPOLYLINE
  5
4EA
330
1F
100
AcDbEntity
  8
0
  6
Continuous
 62
     7
 60
     1
100
AcDbPolyline
 90
        2
 70
     0
 43
0.0
 10
-1299.603883503716
 20
3110.934140051218
 10
-1263.520179192976
 20
3092.493311523088
  0
LWPOLYLINE
  5
4EB
330
1F
100
AcDbEntity
  8
0
  6
Continuous
 62
     7
 60
     1
100
AcDbPolyline
 90
        2
 70
     0
 43
0.0
 10
-1415.998102486007
 20
3110.934140051218
 10
-1379.914398175256
 20
3087.493311523088
  0
LWPOLYLINE
  5
4EC
330
1F
100
AcDbEntity
  8
0
  6
Continuous
 62
     7
 60
     1
100
AcDbPolyline
 90
        2
 70
     0
 43
0.0
 10
-1020.831302858554
 20
3115.108585615735
 10
-984.747598547806
 20
3124.567757087594
  0
LWPOLYLINE
  5
4ED
330
1F
100
AcDbEntity
  8
0
  6
Continuous
 62
     7
 60
     1
100
AcDbPolyline
 90
        2
 70
     0
 43
0.0
 10
-1305.831302858556
 20
3115.108585615735
 10
-1269.747598547815
 20
3096.667757087604
  0
LWPOLYLINE
  5
4EE
330
1F
100
AcDbEntity
  8
0
  6
Continuous
 62
     7
 60
     1
100
AcDbPolyline
 90
        2
 70
     0
 43
0.0
 10
-1422.225521840847
 20
3115.108585615735
 10
-1386.141817530095
 20
3091.667757087604
  0
LWPOLYLINE
  5
4EF
330
1F
100
AcDbEntity
  8
0
  6
Continuous
 62
     7
 60
     1
100
AcDbPolyline
 90
        2
 70
     0
 43
0.0
 10
-1631.283711915009
 20
2871.712995504048
 10
-1595.200007604261
 20
2881.172166975909
  0
LWPOLYLINE
  5
4F0
330
1F
100
AcDbEntity
  8
0
  6
Continuous
 62
     7
 60
     1
100
AcDbPolyline
 90
        2
 70
     0
 43
0.0
 10
-1916.28371191501
 20
2871.712995504048
 10
-1880.20000760427
 20
2853.272166975919
  0
LWPOLYLINE
  5
4F1
330
1F
100
AcDbEntity
  8
0
  6
Continuous
 62
     7
 60
     1
100
AcDbPolyline
 90
        2
 70
     0
 43
0.0
 10
-2032.677930897301
 20
2871.712995504048
 10
-1996.59422658655
 20
2848.272166975919
  0
LWPOLYLINE
  5
4F2
330
1F
100
AcDbEntity
  8
0
  6
Continuous
 62
     7
 60
     1
100
AcDbPolyline
 90
        2
 70
     0
 43
0.0
 10
-1631.283711915009
 20
2871.712995504048
 10
-1595.200007604261
 20
2881.172166975909
  0
LWPOLYLINE
  5
4F3
330
1F
100
AcDbEntity
  8
0
  6
Continuous
 62
     7
 60
     1
100
AcDbPolyline
 90
        2
 70
     0
 43
0.0
 10
-1916.28371191501
 20
2871.712995504048
 10
-1880.20000760427
 20
2853.272166975919
  0
LWPOLYLINE
  5
4F4
330
1F
100
AcDbEntity
  8
0
  6
Continuous
 62
     7
 60
     1
100
AcDbPolyline
 90
        2
 70
     0
 43
0.0
 10
-2032.677930897301
 20
2871.712995504048
 10
-1996.59422658655
 20
2848.272166975919
  0
LWPOLYLINE
  5
4F5
330
1F
100
AcDbEntity
  8
0
  6
Continuous
 62
     7
 60
     1
100
AcDbPolyline
 90
        2
 70
     0
 43
0.0
 10
-1637.511131269848
 20
2875.887441068564
 10
-1601.4274269591
 20
2885.346612540423
  0
LWPOLYLINE
  5
4F6
330
1F
100
AcDbEntity
  8
0
  6
Continuous
 62
     7
 60
     1
100
AcDbPolyline
 90
        2
 70
     0
 43
0.0
 10
-1922.511131269849
 20
2875.887441068564
 10
-1886.427426959109
 20
2857.446612540434
  0
LWPOLYLINE
  5
4F7
330
1F
100
AcDbEntity
  8
0
  6
Continuous
 62
     7
 60
     1
100
AcDbPolyline
 90
        2
 70
     0
 43
0.0
 10
-2038.905350252141
 20
2875.887441068564
 10
-2002.821645941389
 20
2852.446612540434
  0
LWPOLYLINE
  5
4F8
330
1F
100
AcDbEntity
  8
0
  6
Continuous
 62
     7
 60
     1
100
AcDbPolyline
 90
        2
 70
     0
 43
0.0
 10
-1619.236713543109
 20
2877.219992669251
 10
-1583.153009232361
 20
2886.679164141111
  0
LWPOLYLINE
  5
4F9
330
1F
100
AcDbEntity
  8
0
  6
Continuous
 62
     7
 60
     1
100
AcDbPolyline
 90
        2
 70
     0
 43
0.0
 10
-1904.23671354311
 20
2877.219992669251
 10
-1868.15300923237
 20
2858.77916414112
  0
LWPOLYLINE
  5
4FA
330
1F
100
AcDbEntity
  8
0
  6
Continuous
 62
     7
 60
     1
100
AcDbPolyline
 90
        2
 70
     0
 43
0.0
 10
-2020.630932525401
 20
2877.219992669251
 10
-1984.54722821465
 20
2853.77916414112
  0
LWPOLYLINE
  5
4FB
330
1F
100
AcDbEntity
  8
0
  6
Continuous
 62
     7
 60
     1
100
AcDbPolyline
 90
        2
 70
     0
 43
0.0
 10
-1619.236713543109
 20
2877.219992669251
 10
-1583.153009232361
 20
2886.679164141111
  0
LWPOLYLINE
  5
4FC
330
1F
100
AcDbEntity
  8
0
  6
Continuous
 62
     7
 60
     1
100
AcDbPolyline
 90
        2
 70
     0
 43
0.0
 10
-1904.23671354311
 20
2877.219992669251
 10
-1868.15300923237
 20
2858.77916414112
  0
LWPOLYLINE
  5
4FD
330
1F
100
AcDbEntity
  8
0
  6
Continuous
 62
     7
 60
     1
100
AcDbPolyline
 90
        2
 70
     0
 43
0.0
 10
-2020.630932525401
 20
2877.219992669251
 10
-1984.54722821465
 20
2853.77916414112
  0
LWPOLYLINE
  5
4FE
330
1F
100
AcDbEntity
  8
0
  6
Continuous
 62
     7
 60
     1
100
AcDbPolyline
 90
        2
 70
     0
 43
0.0
 10
-1625.464132897948
 20
2881.394438233768
 10
-1589.3804285872
 20
2890.853609705627
  0
LWPOLYLINE
  5
4FF
330
1F
100
AcDbEntity
  8
0
  6
Continuous
 62
     7
 60
     1
100
AcDbPolyline
 90
        2
 70
     0
 43
0.0
 10
-1910.46413289795
 20
2881.394438233768
 10
-1874.380428587209
 20
2862.953609705637
  0
LWPOLYLINE
  5
500
330
1F
100
AcDbEntity
  8
0
  6
Continuous
 62
     7
 60
     1
100
AcDbPolyline
 90
        2
 70
     0
 43
0.0
 10
-2026.858351880241
 20
2881.394438233768
 10
-1990.774647569489
 20
2857.953609705637
  0
LWPOLYLINE
  5
501
330
1F
100
AcDbEntity
  8
0
  6
Continuous
 62
     7
 60
     1
100
AcDbPolyline
 90
        2
 70
     0
 43
0.0
 10
-1365.675102393272
 20
3111.555963005492
 10
-1329.591398082524
 20
3121.015134477353
  0
LWPOLYLINE
  5
502
330
1F
100
AcDbEntity
  8
0
  6
Continuous
 62
     7
 60
     1
100
AcDbPolyline
 90
        2
 70
     0
 43
0.0
 10
-1650.675102393273
 20
3111.555963005492
 10
-1614.591398082533
 20
3093.115134477363
  0
LWPOLYLINE
  5
503
330
1F
100
AcDbEntity
  8
0
  6
Continuous
 62
     7
 60
     1
100
AcDbPolyline
 90
        2
 70
     0
 43
0.0
 10
-1767.069321375564
 20
3111.555963005492
 10
-1730.985617064813
 20
3088.115134477363
  0
LWPOLYLINE
  5
504
330
1F
100
AcDbEntity
  8
0
  6
Continuous
 62
     7
 60
     1
100
AcDbPolyline
 90
        2
 70
     0
 43
0.0
 10
-1365.675102393272
 20
3111.555963005492
 10
-1329.591398082524
 20
3121.015134477353
  0
LWPOLYLINE
  5
505
330
1F
100
AcDbEntity
  8
0
  6
Continuous
 62
     7
 60
     1
100
AcDbPolyline
 90
        2
 70
     0
 43
0.0
 10
-1650.675102393273
 20
3111.555963005492
 10
-1614.591398082533
 20
3093.115134477363
  0
LWPOLYLINE
  5
506
330
1F
100
AcDbEntity
  8
0
  6
Continuous
 62
     7
 60
     1
100
AcDbPolyline
 90
        2
 70
     0
 43
0.0
 10
-1767.069321375564
 20
3111.555963005492
 10
-1730.985617064813
 20
3088.115134477363
  0
LWPOLYLINE
  5
507
330
1F
100
AcDbEntity
  8
0
  6
Continuous
 62
     7
 60
     1
100
AcDbPolyline
 90
        2
 70
     0
 43
0.0
 10
-1371.902521748111
 20
3115.730408570008
 10
-1335.818817437363
 20
3125.189580041867
  0
LWPOLYLINE
  5
508
330
1F
100
AcDbEntity
  8
0
  6
Continuous
 62
     7
 60
     1
100
AcDbPolyline
 90
        2
 70
     0
 43
0.0
 10
-1656.902521748112
 20
3115.730408570008
 10
-1620.818817437372
 20
3097.289580041878
  0
LWPOLYLINE
  5
509
330
1F
100
AcDbEntity
  8
0
  6
Continuous
 62
     7
 60
     1
100
AcDbPolyline
 90
        2
 70
     0
 43
0.0
 10
-1773.296740730404
 20
3115.730408570008
 10
-1737.213036419652
 20
3092.289580041878
  0
LWPOLYLINE
  5
50A
330
1F
100
AcDbEntity
  8
0
  6
Continuous
 62
     7
 60
     1
100
AcDbPolyline
 90
        2
 70
     0
 43
0.0
 10
-1353.628104021372
 20
3117.062960170695
 10
-1317.544399710624
 20
3126.522131642555
  0
LWPOLYLINE
  5
50B
330
1F
100
AcDbEntity
  8
0
  6
Continuous
 62
     7
 60
     1
100
AcDbPolyline
 90
        2
 70
     0
 43
0.0
 10
-1638.628104021373
 20
3117.062960170695
 10
-1602.544399710633
 20
3098.622131642565
  0
LWPOLYLINE
  5
50C
330
1F
100
AcDbEntity
  8
0
  6
Continuous
 62
     7
 60
     1
100
AcDbPolyline
 90
        2
 70
     0
 43
0.0
 10
-1755.022323003664
 20
3117.062960170695
 10
-1718.938618692913
 20
3093.622131642565
  0
LWPOLYLINE
  5
50D
330
1F
100
AcDbEntity
  8
0
  6
Continuous
 62
     7
 60
     1
100
AcDbPolyline
 90
        2
 70
     0
 43
0.0
 10
-1353.628104021372
 20
3117.062960170695
 10
-1317.544399710624
 20
3126.522131642555
  0
LWPOLYLINE
  5
50E
330
1F
100
AcDbEntity
  8
0
  6
Continuous
 62
     7
 60
     1
100
AcDbPolyline
 90
        2
 70
     0
 43
0.0
 10
-1638.628104021373
 20
3117.062960170695
 10
-1602.544399710633
 20
3098.622131642565
  0
LWPOLYLINE
  5
50F
330
1F
100
AcDbEntity
  8
0
  6
Continuous
 62
     7
 60
     1
100
AcDbPolyline
 90
        2
 70
     0
 43
0.0
 10
-1755.022323003664
 20
3117.062960170695
 10
-1718.938618692913
 20
3093.622131642565
  0
LWPOLYLINE
  5
510
330
1F
100
AcDbEntity
  8
0
  6
Continuous
 62
     7
 60
     1
100
AcDbPolyline
 90
        2
 70
     0
 43
0.0
 10
-1359.855523376211
 20
3121.237405735212
 10
-1323.771819065463
 20
3130.696577207071
  0
LWPOLYLINE
  5
511
330
1F
100
AcDbEntity
  8
0
  6
Continuous
 62
     7
 60
     1
100
AcDbPolyline
 90
        2
 70
     0
 43
0.0
 10
-1644.855523376213
 20
3121.237405735212
 10
-1608.771819065472
 20
3102.796577207081
  0
LWPOLYLINE
  5
512
330
1F
100
AcDbEntity
  8
0
  6
Continuous
 62
     7
 60
     1
100
AcDbPolyline
 90
        2
 70
     0
 43
0.0
 10
-1761.249742358504
 20
3121.237405735212
 10
-1725.166038047752
 20
3097.796577207081
  0
LWPOLYLINE
  5
513
330
1F
100
AcDbEntity
  8
0
  6
Continuous
 62
     7
 60
     1
100
AcDbPolyline
 90
        2
 70
     0
 43
0.0
 10
-1756.104848900709
 20
3121.471926673017
 10
-1720.021144589957
 20
3098.031098144886
  0
LWPOLYLINE
  5
514
330
1F
100
AcDbEntity
  8
0
  6
Continuous
 62
     7
 60
     1
100
AcDbPolyline
 90
        2
 70
     0
 43
0.0
 10
-1639.710629918418
 20
3121.471926673017
 10
-1603.626925607677
 20
3103.031098144886
  0
LWPOLYLINE
  5
515
330
1F
100
AcDbEntity
  8
0
  6
Continuous
 62
     7
 60
     1
100
AcDbPolyline
 90
        2
 70
     0
 43
0.0
 10
-1354.710629918416
 20
3121.471926673017
 10
-1318.626925607668
 20
3130.931098144876
  0
LWPOLYLINE
  5
516
330
1F
100
AcDbEntity
  8
0
  6
Continuous
 62
     7
 60
     1
100
AcDbPolyline
 90
        2
 70
     0
 43
0.0
 10
-1749.877429545869
 20
3117.2974811085
 10
-1713.793725235118
 20
3093.85665258037
  0
LWPOLYLINE
  5
517
330
1F
100
AcDbEntity
  8
0
  6
Continuous
 62
     7
 60
     1
100
AcDbPolyline
 90
        2
 70
     0
 43
0.0
 10
-1633.483210563578
 20
3117.2974811085
 10
-1597.399506252838
 20
3098.85665258037
  0
LWPOLYLINE
  5
518
330
1F
100
AcDbEntity
  8
0
  6
Continuous
 62
     7
 60
     1
100
AcDbPolyline
 90
        2
 70
     0
 43
0.0
 10
-1348.483210563577
 20
3117.2974811085
 10
-1312.399506252829
 20
3126.75665258036
  0
LWPOLYLINE
  5
519
330
1F
100
AcDbEntity
  8
0
  6
Continuous
 62
     7
 60
     1
100
AcDbPolyline
 90
        2
 70
     0
 43
0.0
 10
-1749.877429545869
 20
3117.2974811085
 10
-1713.793725235118
 20
3093.85665258037
  0
LWPOLYLINE
  5
51A
330
1F
100
AcDbEntity
  8
0
  6
Continuous
 62
     7
 60
     1
100
AcDbPolyline
 90
        2
 70
     0
 43
0.0
 10
-1633.483210563578
 20
3117.2974811085
 10
-1597.399506252838
 20
3098.85665258037
  0
LWPOLYLINE
  5
51B
330
1F
100
AcDbEntity
  8
0
  6
Continuous
 62
     7
 60
     1
100
AcDbPolyline
 90
        2
 70
     0
 43
0.0
 10
-1348.483210563577
 20
3117.2974811085
 10
-1312.399506252829
 20
3126.75665258036
  0
LWPOLYLINE
  5
51C
330
1F
100
AcDbEntity
  8
0
  6
Continuous
 62
     7
 60
     1
100
AcDbPolyline
 90
        2
 70
     0
 43
0.0
 10
-1768.151847272609
 20
3115.964929507814
 10
-1732.068142961857
 20
3092.524100979683
  0
LWPOLYLINE
  5
51D
330
1F
100
AcDbEntity
  8
0
  6
Continuous
 62
     7
 60
     1
100
AcDbPolyline
 90
        2
 70
     0
 43
0.0
 10
-1651.757628290317
 20
3115.964929507814
 10
-1615.673923979577
 20
3097.524100979683
  0
LWPOLYLINE
  5
51E
330
1F
100
AcDbEntity
  8
0
  6
Continuous
 62
     7
 60
     1
100
AcDbPolyline
 90
        2
 70
     0
 43
0.0
 10
-1366.757628290316
 20
3115.964929507814
 10
-1330.673923979568
 20
3125.424100979673
  0
LWPOLYLINE
  5
51F
330
1F
100
AcDbEntity
  8
0
  6
Continuous
 62
     7
 60
     1
100
AcDbPolyline
 90
        2
 70
     0
 43
0.0
 10
-1761.924427917769
 20
3111.790483943297
 10
-1725.840723607018
 20
3088.349655415168
  0
LWPOLYLINE
  5
520
330
1F
100
AcDbEntity
  8
0
  6
Continuous
 62
     7
 60
     1
100
AcDbPolyline
 90
        2
 70
     0
 43
0.0
 10
-1645.530208935478
 20
3111.790483943297
 10
-1609.446504624738
 20
3093.349655415168
  0
LWPOLYLINE
  5
521
330
1F
100
AcDbEntity
  8
0
  6
Continuous
 62
     7
 60
     1
100
AcDbPolyline
 90
        2
 70
     0
 43
0.0
 10
-1360.530208935477
 20
3111.790483943297
 10
-1324.446504624729
 20
3121.249655415158
  0
LWPOLYLINE
  5
522
330
1F
100
AcDbEntity
  8
0
  6
Continuous
 62
     7
 60
     1
100
AcDbPolyline
 90
        2
 70
     0
 43
0.0
 10
-1761.924427917769
 20
3111.790483943297
 10
-1725.840723607018
 20
3088.349655415168
  0
LWPOLYLINE
  5
523
330
1F
100
AcDbEntity
  8
0
  6
Continuous
 62
     7
 60
     1
100
AcDbPolyline
 90
        2
 70
     0
 43
0.0
 10
-1645.530208935478
 20
3111.790483943297
 10
-1609.446504624738
 20
3093.349655415168
  0
LWPOLYLINE
  5
524
330
1F
100
AcDbEntity
  8
0
  6
Continuous
 62
     7
 60
     1
100
AcDbPolyline
 90
        2
 70
     0
 43
0.0
 10
-1360.530208935477
 20
3111.790483943297
 10
-1324.446504624729
 20
3121.249655415158
  0
MTEXT
  5
526
330
1F
100
AcDbEntity
  8
1
 62
     4
100
AcDbMText
 10
215.4432094841956
 20
73.59598268443875
 30
0.0
 40
3.5
 41
0.0
 71
     2
 72
     1
  1
 
  7
CONVERTER_13
 73
     1
 44
1.32052821128451
  0
MTEXT
  5
527
330
1F
100
AcDbEntity
  8
1
 62
     4
100
AcDbMText
 10
94.39321024779301
 20
73.59598268443875
 30
0.0
 40
3.5
 41
0.0
 71
     2
 72
     1
  1
 
  7
CONVERTER_13
 73
     1
 44
1.32052821128451
  0
DIMENSION
  5
532
330
1F
100
AcDbEntity
  8
1
100
AcDbDimension
  2
*D3
 10
159.597172589488
 20
96.09598268366064
 30
0.0
 11
155.947172589488
 21
127.845982683662
 31
0.0
 70
    32
  1
<>
 71
     5
 42
-1.0
 53
90.0
  3
ME10_DIM_10
100
AcDbAlignedDimension
 13
109.6427102484579
 23
159.5959826836634
 33
0.0
 14
108.1432102484588
 24
96.09598268366068
 34
0.0
 50
90.0
100
AcDbRotatedDimension
  0
DIMENSION
  5
53D
330
1F
100
AcDbEntity
  8
1
100
AcDbDimension
  2
*D4
 10
148.42843508482
 20
60.0118050693937
 30
0.0
 11
94.38582266663893
 21
63.6618050693937
 31
0.0
 70
    32
  1
109,5
 71
     5
 42
-1.0
 53
0.00013888888889
  3
ME10_DIM_11
100
AcDbAlignedDimension
 13
40.34321024845787
 23
103.5959826836665
 33
0.0
 14
148.42843508482
 24
103.5959826836635
 34
0.0
100
AcDbRotatedDimension
  0
DIMENSION
  5
548
330
1F
100
AcDbEntity
  8
1
100
AcDbDimension
  2
*D5
 10
244.4432100335137
 20
60.0118050693937
 30
0.0
 11
215.4432100335137
 21
63.5118050693937
 31
0.0
 70
    32
  1
<>
 71
     5
 42
-1.0
 53
0.00013888888889
  3
ME10_DIM_12
100
AcDbAlignedDimension
 13
186.4432100335137
 23
78.59598268366386
 33
0.0
 14
244.4432100335137
 24
78.59598268367046
 34
0.0
100
AcDbRotatedDimension
  0
DIMENSION
  5
553
330
1F
100
AcDbEntity
  8
1
100
AcDbDimension
  2
*D6
 10
107.6427102484579
 20
173.215245754404
 30
0.0
 11
95.14271024845789
 21
176.715245754404
 31
0.0
 70
    32
  1
M25
 71
     5
 42
-1.0
 53
0.00013888888889
  3
ME10_DIM_13
100
AcDbAlignedDimension
 13
82.64271024845786
 23
159.5959826836634
 33
0.0
 14
107.6427102484579
 24
159.5959826836634
 34
0.0
100
AcDbRotatedDimension
  0
ENDSEC
  0
SECTION
  2
OBJECTS
  0
DICTIONARY
  5
C
330
0
100
AcDbDictionary
281
     1
  3
ACAD_GROUP
350
D
  3
ACAD_LAYOUT
350
1A
  3
ACAD_MATERIAL
350
3B
  3
ACAD_MLEADERSTYLE
350
556
  3
ACAD_MLINESTYLE
350
17
  3
ACAD_PLOTSETTINGS
350
19
  3
ACAD_PLOTSTYLENAME
350
E
  3
ACAD_VISUALSTYLE
350
2A
  3
AcDbVariableDictionary
350
554
  0
DICTIONARY
  5
D
102
{ACAD_REACTORS
330
C
102
}
330
C
100
AcDbDictionary
281
     1
  0
DICTIONARY
  5
1A
102
{ACAD_REACTORS
330
C
102
}
330
C
100
AcDbDictionary
281
     1
  3
Layout1
350
1E
  3
Layout2
350
26
  3
Model
350
22
  0
DICTIONARY
  5
3B
102
{ACAD_REACTORS
330
C
102
}
330
C
100
AcDbDictionary
281
     1
  3
ByBlock
350
3D
  3
ByLayer
350
3C
  3
Global
350
3E
  0
DICTIONARY
  5
556
102
{ACAD_REACTORS
330
C
102
}
330
C
100
AcDbDictionary
281
     1
  0
DICTIONARY
  5
17
102
{ACAD_REACTORS
330
C
102
}
330
C
100
AcDbDictionary
281
     1
  3
Standard
350
18
  0
DICTIONARY
  5
19
102
{ACAD_REACTORS
330
C
102
}
330
C
100
AcDbDictionary
281
     1
  0
ACDBDICTIONARYWDFLT
  5
E
102
{ACAD_REACTORS
330
C
102
}
330
C
100
AcDbDictionary
281
     1
  3
Normal
350
F
100
AcDbDictionaryWithDefault
340
F
  0
DICTIONARY
  5
2A
102
{ACAD_REACTORS
330
C
102
}
330
C
100
AcDbDictionary
281
     1
  3
2dWireframe
350
2F
  3
3D Hidden
350
31
  3
3dWireframe
350
30
  3
Basic
350
32
  3
Brighten
350
36
  3
ColorChange
350
3A
  3
Conceptual
350
34
  3
Dim
350
35
  3
Facepattern
350
39
  3
Flat
350
2B
  3
FlatWithEdges
350
2C
  3
Gouraud
350
2D
  3
GouraudWithEdges
350
2E
  3
Linepattern
350
38
  3
Realistic
350
33
  3
Thicken
350
37
  0
DICTIONARY
  5
554
102
{ACAD_REACTORS
330
C
102
}
330
C
100
AcDbDictionary
281
     1
  3
DIMASSOC
350
557
  3
HIDETEXT
350
558
  0
LAYOUT
  5
1E
102
{ACAD_REACTORS
330
1A
102
}
330
1A
100
AcDbPlotSettings
  1

  2
none_device
  4

  6

 40
0.0
 41
0.0
 42
0.0
 43
0.0
 44
0.0
 45
0.0
 46
0.0
 47
0.0
 48
0.0
 49
0.0
140
0.0
141
0.0
142
1.0
143
1.0
 70
   688
 72
     0
 73
     0
 74
     5
  7

 75
    16
147
1.0
148
0.0
149
0.0
100
AcDbLayout
  1
Layout1
 70
     1
 71
     1
 10
0.0
 20
0.0
 11
12.0
 21
9.0
 12
0.0
 22
0.0
 32
0.0
 14
1.00000000000000E+20
 24
1.00000000000000E+20
 34
1.00000000000000E+20
 15
-1.00000000000000E+20
 25
-1.00000000000000E+20
 35
-1.00000000000000E+20
146
0.0
 13
0.0
 23
0.0
 33
0.0
 16
1.0
 26
0.0
 36
0.0
 17
0.0
 27
1.0
 37
0.0
 76
     0
330
1B
  0
LAYOUT
  5
26
102
{ACAD_REACTORS
330
1A
102
}
330
1A
100
AcDbPlotSettings
  1

  2
none_device
  4

  6

 40
0.0
 41
0.0
 42
0.0
 43
0.0
 44
0.0
 45
0.0
 46
0.0
 47
0.0
 48
0.0
 49
0.0
140
0.0
141
0.0
142
1.0
143
1.0
 70
   688
 72
     0
 73
     0
 74
     5
  7

 75
    16
147
1.0
148
0.0
149
0.0
100
AcDbLayout
  1
Layout2
 70
     1
 71
     2
 10
0.0
 20
0.0
 11
0.0
 21
0.0
 12
0.0
 22
0.0
 32
0.0
 14
0.0
 24
0.0
 34
0.0
 15
0.0
 25
0.0
 35
0.0
146
0.0
 13
0.0
 23
0.0
 33
0.0
 16
1.0
 26
0.0
 36
0.0
 17
0.0
 27
1.0
 37
0.0
 76
     0
330
23
  0
LAYOUT
  5
22
102
{ACAD_REACTORS
330
1A
102
}
330
1A
100
AcDbPlotSettings
  1

  2
none_device
  4

  6

 40
0.0
 41
0.0
 42
0.0
 43
0.0
 44
0.0
 45
0.0
 46
0.0
 47
0.0
 48
0.0
 49
0.0
140
0.0
141
0.0
142
1.0
143
1.0
 70
  1712
 72
     0
 73
     0
 74
     0
  7

 75
     0
147
1.0
148
0.0
149
0.0
100
AcDbLayout
  1
Model
 70
     1
 71
     0
 10
0.0
 20
0.0
 11
12.0
 21
9.0
 12
0.0
 22
0.0
 32
0.0
 14
-5.14489345779498
 24
-0.23452093780543
 34
0.0
 15
291.8551065422055
 25
209.7654790621948
 35
0.0
146
0.0
 13
0.0
 23
0.0
 33
0.0
 16
1.0
 26
0.0
 36
0.0
 17
0.0
 27
1.0
 37
0.0
 76
     0
330
1F
331
29
  0
MATERIAL
  5
3D
102
{ACAD_REACTORS
330
3B
102
}
102
{ACAD_XDICTIONARY
360
57B
102
}
330
3B
100
AcDbMaterial
  1
ByBlock
  0
MATERIAL
  5
3C
102
{ACAD_REACTORS
330
3B
102
}
102
{ACAD_XDICTIONARY
360
579
102
}
330
3B
100
AcDbMaterial
  1
ByLayer
  0
MATERIAL
  5
3E
102
{ACAD_REACTORS
330
3B
102
}
102
{ACAD_XDICTIONARY
360
57D
102
}
330
3B
100
AcDbMaterial
  1
Global
  0
MLINESTYLE
  5
18
102
{ACAD_REACTORS
330
17
102
}
330
17
100
AcDbMlineStyle
  2
Standard
 70
     0
  3

 62
   256
 51
90.0
 52
90.0
 71
     2
 49
0.5
 62
   256
  6
BYLAYER
 49
-0.5
 62
   256
  6
BYLAYER
  0
ACDBPLACEHOLDER
  5
F
102
{ACAD_REACTORS
330
E
102
}
330
E
  0
VISUALSTYLE
  5
2F
102
{ACAD_REACTORS
330
2A
102
}
102
{ACAD_XDICTIONARY
360
561
102
}
330
2A
100
AcDbVisualStyle
  2
2dWireframe
 70
     4
 71
     0
 72
     2
 73
     0
 90
        0
 40
-0.6
 41
-30.0
 62
     5
 63
     7
 74
     1
 91
        4
 64
     7
 65
   257
 75
     1
175
     1
 42
1.0
 92
        0
 66
   257
 43
1.0
 76
     1
 77
     6
 78
     2
 67
     7
 79
     5
170
     0
171
     0
290
     0
174
     0
 93
        1
 44
0.0
173
     0
291
     0
 45
0.0
1001
ACAD
1000
AcDbSavedByObjectVersion
1070
     0
  0
VISUALSTYLE
  5
31
102
{ACAD_REACTORS
330
2A
102
}
102
{ACAD_XDICTIONARY
360
565
102
}
330
2A
100
AcDbVisualStyle
  2
3D Hidden
 70
     6
 71
     1
 72
     2
 73
     2
 90
        0
 40
-0.6
 41
-30.0
 62
     5
 63
     7
 74
     2
 91
        2
 64
     7
 65
   257
 75
     2
175
     1
 42
40.0
 92
        0
 66
   257
 43
1.0
 76
     1
 77
     6
 78
     2
 67
     7
 79
     3
170
     0
171
     0
290
     0
174
     0
 93
        1
 44
0.0
173
     0
291
     0
 45
0.0
1001
ACAD
1000
AcDbSavedByObjectVersion
1070
     0
  0
VISUALSTYLE
  5
30
102
{ACAD_REACTORS
330
2A
102
}
102
{ACAD_XDICTIONARY
360
563
102
}
330
2A
100
AcDbVisualStyle
  2
3dWireframe
 70
     5
 71
     0
 72
     2
 73
     0
 90
        0
 40
-0.6
 41
-30.0
 62
     5
 63
     7
 74
     1
 91
        4
 64
     7
 65
   257
 75
     1
175
     1
 42
1.0
 92
        0
 66
   257
 43
1.0
 76
     1
 77
     6
 78
     2
 67
     7
 79
     5
170
     0
171
     0
290
     0
174
     0
 93
        1
 44
0.0
173
     0
291
     0
 45
0.0
1001
ACAD
1000
AcDbSavedByObjectVersion
1070
     0
  0
VISUALSTYLE
  5
32
102
{ACAD_REACTORS
330
2A
102
}
102
{ACAD_XDICTIONARY
360
567
102
}
330
2A
100
AcDbVisualStyle
  2
Basic
 70
     7
 71
     1
 72
     0
 73
     1
 90
        0
 40
-0.6
 41
-30.0
 62
     5
 63
     7
 74
     0
 91
        4
 64
     7
 65
   257
 75
     1
175
     1
 42
1.0
 92
        8
 66
     7
 43
1.0
 76
     1
 77
     6
 78
     2
 67
     7
 79
     5
170
     0
171
     0
290
     0
174
     0
 93
        1
 44
0.0
173
     0
291
     1
 45
0.0
1001
ACAD
1000
AcDbSavedByObjectVersion
1070
     0
  0
VISUALSTYLE
  5
36
102
{ACAD_REACTORS
330
2A
102
}
102
{ACAD_XDICTIONARY
360
56F
102
}
330
2A
100
AcDbVisualStyle
  2
Brighten
 70
    12
 71
     2
 72
     2
 73
     0
 90
        0
 40
-0.6
 41
-30.0
 62
     5
 63
     7
 74
     1
 91
        4
 64
     7
 65
   257
 75
     1
175
     1
 42
1.0
 92
        8
 66
     7
 43
1.0
 76
     1
 77
     6
 78
     2
 67
     7
 79
     5
170
     0
171
     0
290
     0
174
     0
 93
        1
 44
50.0
173
     0
291
     1
 45
0.0
1001
ACAD
1000
AcDbSavedByObjectVersion
1070
     0
  0
VISUALSTYLE
  5
3A
102
{ACAD_REACTORS
330
2A
102
}
102
{ACAD_XDICTIONARY
360
577
102
}
330
2A
100
AcDbVisualStyle
  2
ColorChange
 70
    16
 71
     2
 72
     2
 73
     3
 90
        0
 40
-0.6
 41
-30.0
 62
     5
 63
     8
 74
     1
 91
        4
 64
     7
 65
   257
 75
     1
175
     1
 42
1.0
 92
        8
 66
     8
 43
1.0
 76
     1
 77
     6
 78
     2
 67
     7
 79
     5
170
     0
171
     0
290
     0
174
     0
 93
        1
 44
0.0
173
     0
291
     1
 45
0.0
1001
ACAD
1000
AcDbSavedByObjectVersion
1070
     0
  0
VISUALSTYLE
  5
34
102
{ACAD_REACTORS
330
2A
102
}
102
{ACAD_XDICTIONARY
360
56B
102
}
330
2A
100
AcDbVisualStyle
  2
Conceptual
 70
     9
 71
     3
 72
     2
 73
     0
 90
        0
 40
-0.6
 41
-30.0
 62
     5
 63
     7
 74
     2
 91
        2
 64
     7
 65
   257
 75
     1
175
     1
 42
40.0
 92
        8
 66
     7
 43
1.0
 76
     1
 77
     6
 78
     2
 67
     7
 79
     3
170
     0
171
     0
290
     0
174
     0
 93
        1
 44
0.0
173
     0
291
     0
 45
0.0
1001
ACAD
1000
AcDbSavedByObjectVersion
1070
     0
  0
VISUALSTYLE
  5
35
102
{ACAD_REACTORS
330
2A
102
}
102
{ACAD_XDICTIONARY
360
56D
102
}
330
2A
100
AcDbVisualStyle
  2
Dim
 70
    11
 71
     2
 72
     2
 73
     0
 90
        0
 40
-0.6
 41
-30.0
 62
     5
 63
     7
 74
     1
 91
        4
 64
     7
 65
   257
 75
     1
175
     1
 42
1.0
 92
        8
 66
     7
 43
1.0
 76
     1
 77
     6
 78
     2
 67
     7
 79
     5
170
     0
171
     0
290
     0
174
     0
 93
        1
 44
-50.0
173
     0
291
     1
 45
0.0
1001
ACAD
1000
AcDbSavedByObjectVersion
1070
     0
  0
VISUALSTYLE
  5
39
102
{ACAD_REACTORS
330
2A
102
}
102
{ACAD_XDICTIONARY
360
575
102
}
330
2A
100
AcDbVisualStyle
  2
Facepattern
 70
    15
 71
     2
 72
     2
 73
     0
 90
        0
 40
-0.6
 41
-30.0
 62
     5
 63
     7
 74
     1
 91
        4
 64
     7
 65
   257
 75
     1
175
     1
 42
1.0
 92
        8
 66
     7
 43
1.0
 76
     1
 77
     6
 78
     2
 67
     7
 79
     5
170
     0
171
     0
290
     0
174
     0
 93
        1
 44
0.0
173
     0
291
     1
 45
0.0
1001
ACAD
1000
AcDbSavedByObjectVersion
1070
     0
  0
VISUALSTYLE
  5
2B
102
{ACAD_REACTORS
330
2A
102
}
102
{ACAD_XDICTIONARY
360
559
102
}
330
2A
100
AcDbVisualStyle
  2
Flat
 70
     0
 71
     2
 72
     1
 73
     1
 90
        2
 40
-0.6
 41
30.0
 62
     5
 63
     7
 74
     0
 91
        4
 64
     7
 65
   257
 75
     1
175
     1
 42
1.0
 92
        8
 66
     7
 43
1.0
 76
     1
 77
     6
 78
     2
 67
     7
 79
     5
170
     0
171
     0
290
     0
174
     0
 93
       13
 44
0.0
173
     0
291
     1
 45
0.0
1001
ACAD
1000
AcDbSavedByObjectVersion
1070
     0
  0
VISUALSTYLE
  5
2C
102
{ACAD_REACTORS
330
2A
102
}
102
{ACAD_XDICTIONARY
360
55B
102
}
330
2A
100
AcDbVisualStyle
  2
FlatWithEdges
 70
     1
 71
     2
 72
     1
 73
     1
 90
        2
 40
-0.6
 41
30.0
 62
     5
 63
     7
 74
     1
 91
        4
 64
     7
 65
   257
 75
     1
175
     1
 42
1.0
 92
        0
 66
   257
 43
1.0
 76
     1
 77
     6
 78
     2
 67
     7
 79
     5
170
     0
171
     0
290
     0
174
     0
 93
       13
 44
0.0
173
     0
291
     1
 45
0.0
1001
ACAD
1000
AcDbSavedByObjectVersion
1070
     0
  0
VISUALSTYLE
  5
2D
102
{ACAD_REACTORS
330
2A
102
}
102
{ACAD_XDICTIONARY
360
55D
102
}
330
2A
100
AcDbVisualStyle
  2
Gouraud
 70
     2
 71
     2
 72
     2
 73
     1
 90
        2
 40
-0.6
 41
30.0
 62
     5
 63
     7
 74
     0
 91
        4
 64
     7
 65
   257
 75
     1
175
     1
 42
1.0
 92
        0
 66
     7
 43
1.0
 76
     1
 77
     6
 78
     2
 67
     7
 79
     5
170
     0
171
     0
290
     0
174
     0
 93
       13
 44
0.0
173
     0
291
     1
 45
0.0
1001
ACAD
1000
AcDbSavedByObjectVersion
1070
     0
  0
VISUALSTYLE
  5
2E
102
{ACAD_REACTORS
330
2A
102
}
102
{ACAD_XDICTIONARY
360
55F
102
}
330
2A
100
AcDbVisualStyle
  2
GouraudWithEdges
 70
     3
 71
     2
 72
     2
 73
     1
 90
        2
 40
-0.6
 41
30.0
 62
     5
 63
     7
 74
     1
 91
        4
 64
     7
 65
   257
 75
     1
175
     1
 42
1.0
 92
        0
 66
   257
 43
1.0
 76
     1
 77
     6
 78
     2
 67
     7
 79
     5
170
     0
171
     0
290
     0
174
     0
 93
       13
 44
0.0
173
     0
291
     1
 45
0.0
1001
ACAD
1000
AcDbSavedByObjectVersion
1070
     0
  0
VISUALSTYLE
  5
38
102
{ACAD_REACTORS
330
2A
102
}
102
{ACAD_XDICTIONARY
360
573
102
}
330
2A
100
AcDbVisualStyle
  2
Linepattern
 70
    14
 71
     2
 72
     2
 73
     0
 90
        0
 40
-0.6
 41
-30.0
 62
     5
 63
     7
 74
     1
 91
        4
 64
     7
 65
   257
 75
     7
175
     7
 42
1.0
 92
        8
 66
     7
 43
1.0
 76
     1
 77
     6
 78
     2
 67
     7
 79
     5
170
     0
171
     0
290
     0
174
     0
 93
        1
 44
0.0
173
     0
291
     1
 45
0.0
1001
ACAD
1000
AcDbSavedByObjectVersion
1070
     0
  0
VISUALSTYLE
  5
33
102
{ACAD_REACTORS
330
2A
102
}
102
{ACAD_XDICTIONARY
360
569
102
}
330
2A
100
AcDbVisualStyle
  2
Realistic
 70
     8
 71
     2
 72
     2
 73
     0
 90
        0
 40
-0.6
 41
-30.0
 62
     5
 63
     7
 74
     1
 91
        0
 64
     7
 65
   257
 75
     1
175
     1
 42
1.0
 92
        8
 66
     8
 43
1.0
 76
     1
 77
     6
 78
     2
 67
     7
 79
     5
170
     0
171
     0
290
     0
174
     0
 93
       13
 44
0.0
173
     0
291
     0
 45
0.0
1001
ACAD
1000
AcDbSavedByObjectVersion
1070
     0
  0
VISUALSTYLE
  5
37
102
{ACAD_REACTORS
330
2A
102
}
102
{ACAD_XDICTIONARY
360
571
102
}
330
2A
100
AcDbVisualStyle
  2
Thicken
 70
    13
 71
     2
 72
     2
 73
     0
 90
        0
 40
-0.6
 41
-30.0
 62
     5
 63
     7
 74
     1
 91
        4
 64
     7
 65
   257
 75
     1
175
     1
 42
1.0
 92
       12
 66
     7
 43
1.0
 76
     1
 77
     6
 78
     2
 67
     7
 79
     5
170
     0
171
     0
290
     0
174
     0
 93
        1
 44
0.0
173
     0
291
     1
 45
0.0
1001
ACAD
1000
AcDbSavedByObjectVersion
1070
     0
  0
DICTIONARYVAR
  5
557
102
{ACAD_REACTORS
330
554
102
}
330
554
100
DictionaryVariables
280
     0
  1
2
  0
DICTIONARYVAR
  5
558
102
{ACAD_REACTORS
330
554
102
}
330
554
100
DictionaryVariables
280
     0
  1
1
  0
DICTIONARY
  5
57B
330
3D
100
AcDbDictionary
280
     1
281
     1
  3
ACAD_XREC_ROUNDTRIP
360
57C
  0
DICTIONARY
  5
579
330
3C
100
AcDbDictionary
280
     1
281
     1
  3
ACAD_XREC_ROUNDTRIP
360
57A
  0
DICTIONARY
  5
57D
330
3E
100
AcDbDictionary
280
     1
281
     1
  3
ACAD_XREC_ROUNDTRIP
360
57E
  0
DICTIONARY
  5
561
330
2F
100
AcDbDictionary
280
     1
281
     1
  3
ACAD_XREC_ROUNDTRIP
360
562
  0
DICTIONARY
  5
565
330
31
100
AcDbDictionary
280
     1
281
     1
  3
ACAD_XREC_ROUNDTRIP
360
566
  0
DICTIONARY
  5
563
330
30
100
AcDbDictionary
280
     1
281
     1
  3
ACAD_XREC_ROUNDTRIP
360
564
  0
DICTIONARY
  5
567
330
32
100
AcDbDictionary
280
     1
281
     1
  3
ACAD_XREC_ROUNDTRIP
360
568
  0
DICTIONARY
  5
56F
330
36
100
AcDbDictionary
280
     1
281
     1
  3
ACAD_XREC_ROUNDTRIP
360
570
  0
DICTIONARY
  5
577
330
3A
100
AcDbDictionary
280
     1
281
     1
  3
ACAD_XREC_ROUNDTRIP
360
578
  0
DICTIONARY
  5
56B
330
34
100
AcDbDictionary
280
     1
281
     1
  3
ACAD_XREC_ROUNDTRIP
360
56C
  0
DICTIONARY
  5
56D
330
35
100
AcDbDictionary
280
     1
281
     1
  3
ACAD_XREC_ROUNDTRIP
360
56E
  0
DICTIONARY
  5
575
330
39
100
AcDbDictionary
280
     1
281
     1
  3
ACAD_XREC_ROUNDTRIP
360
576
  0
DICTIONARY
  5
559
330
2B
100
AcDbDictionary
280
     1
281
     1
  3
ACAD_XREC_ROUNDTRIP
360
55A
  0
DICTIONARY
  5
55B
330
2C
100
AcDbDictionary
280
     1
281
     1
  3
ACAD_XREC_ROUNDTRIP
360
55C
  0
DICTIONARY
  5
55D
330
2D
100
AcDbDictionary
280
     1
281
     1
  3
ACAD_XREC_ROUNDTRIP
360
55E
  0
DICTIONARY
  5
55F
330
2E
100
AcDbDictionary
280
     1
281
     1
  3
ACAD_XREC_ROUNDTRIP
360
560
  0
DICTIONARY
  5
573
330
38
100
AcDbDictionary
280
     1
281
     1
  3
ACAD_XREC_ROUNDTRIP
360
574
  0
DICTIONARY
  5
569
330
33
100
AcDbDictionary
280
     1
281
     1
  3
ACAD_XREC_ROUNDTRIP
360
56A
  0
DICTIONARY
  5
571
330
37
100
AcDbDictionary
280
     1
281
     1
  3
ACAD_XREC_ROUNDTRIP
360
572
  0
XRECORD
  5
57C
102
{ACAD_REACTORS
330
57B
102
}
330
57B
100
AcDbXrecord
280
     1
102
MATERIAL
148
0.0
149
0.0
149
0.0
 93
        0
 94
      127
282
     0
 72
     1
 77
     1
171
     1
175
     1
179
     1
273
     0
  0
XRECORD
  5
57A
102
{ACAD_REACTORS
330
579
102
}
330
579
100
AcDbXrecord
280
     1
102
MATERIAL
148
0.0
149
0.0
149
0.0
 93
        0
 94
      127
282
     0
 72
     1
 77
     1
171
     1
175
     1
179
     1
273
     0
  0
XRECORD
  5
57E
102
{ACAD_REACTORS
330
57D
102
}
330
57D
100
AcDbXrecord
280
     1
102
MATERIAL
148
0.0
149
0.0
149
0.0
 93
        0
 94
      127
282
     0
 72
     1
 77
     1
171
     1
175
     1
179
     1
273
     0
  0
XRECORD
  5
562
102
{ACAD_REACTORS
330
561
102
}
330
561
100
AcDbXrecord
280
     1
102
RTVSPropertyOp0
 70
     1
102
RTVSPropertyOp1
 70
     1
102
RTVSPropertyOp2
 70
     1
102
RTVSPropertyOp3
 70
     1
102
RTVSPropertyOp4
 70
     1
102
RTVSPropertyOp5
 70
     1
102
RTVSPropertyOp6
 70
     1
102
RTVSPropertyOp7
 70
     1
102
RTVSPropertyOp8
 70
     1
102
RTVSPropertyOp9
 70
     1
102
RTVSPropertyOp10
 70
     1
102
RTVSPropertyOp11
 70
     1
102
RTVSPropertyOp12
 70
     1
102
RTVSPropertyOp13
 70
     1
102
RTVSPropertyOp14
 70
     1
102
RTVSPropertyOp15
 70
     1
102
RTVSPropertyOp16
 70
     1
102
RTVSPropertyOp17
 70
     1
102
RTVSPropertyOp18
 70
     1
102
RTVSPropertyOp19
 70
     1
102
RTVSPropertyOp20
 70
     1
102
RTVSPropertyOp21
 70
     1
102
RTVSPropertyOp22
 70
     1
102
RTVSPropertyOp23
 70
     1
102
RTVSPropertyOp24
 70
     1
102
RTVSPropertyOp25
 70
     1
102
RTVSPropertyOp26
 70
     1
102
RTVSPropertyOp27
 70
     1
102
RTVSPropertyOp28
 70
     1
102
RTVSPropertyOp29
 70
     1
102
RTVSPropertyOp30
 70
     1
102
RTVSPropertyOp31
 70
     1
102
RTVSPropertyOp32
 70
     1
  0
XRECORD
  5
566
102
{ACAD_REACTORS
330
565
102
}
330
565
100
AcDbXrecord
280
     1
102
RTVSPropertyOp0
 70
     1
102
RTVSPropertyOp1
 70
     1
102
RTVSPropertyOp2
 70
     1
102
RTVSPropertyOp3
 70
     1
102
RTVSPropertyOp4
 70
     1
102
RTVSPropertyOp5
 70
     1
102
RTVSPropertyOp6
 70
     1
102
RTVSPropertyOp7
 70
     1
102
RTVSPropertyOp8
 70
     1
102
RTVSPropertyOp9
 70
     1
102
RTVSPropertyOp10
 70
     1
102
RTVSPropertyOp11
 70
     1
102
RTVSPropertyOp12
 70
     1
102
RTVSPropertyOp13
 70
     1
102
RTVSPropertyOp14
 70
     1
102
RTVSPropertyOp15
 70
     1
102
RTVSPropertyOp16
 70
     1
102
RTVSPropertyOp17
 70
     1
102
RTVSPropertyOp18
 70
     1
102
RTVSPropertyOp19
 70
     1
102
RTVSPropertyOp20
 70
     1
102
RTVSPropertyOp21
 70
     1
102
RTVSPropertyOp22
 70
     1
102
RTVSPropertyOp23
 70
     1
102
RTVSPropertyOp24
 70
     1
102
RTVSPropertyOp25
 70
     1
102
RTVSPropertyOp26
 70
     1
102
RTVSPropertyOp27
 70
     1
102
RTVSPropertyOp28
 70
     1
102
RTVSPropertyOp29
 70
     1
102
RTVSPropertyOp30
 70
     1
102
RTVSPropertyOp31
 70
     1
102
RTVSPropertyOp32
 70
     1
  0
XRECORD
  5
564
102
{ACAD_REACTORS
330
563
102
}
330
563
100
AcDbXrecord
280
     1
102
RTVSPropertyOp0
 70
     1
102
RTVSPropertyOp1
 70
     1
102
RTVSPropertyOp2
 70
     1
102
RTVSPropertyOp3
 70
     1
102
RTVSPropertyOp4
 70
     1
102
RTVSPropertyOp5
 70
     1
102
RTVSPropertyOp6
 70
     1
102
RTVSPropertyOp7
 70
     1
102
RTVSPropertyOp8
 70
     1
102
RTVSPropertyOp9
 70
     1
102
RTVSPropertyOp10
 70
     1
102
RTVSPropertyOp11
 70
     1
102
RTVSPropertyOp12
 70
     1
102
RTVSPropertyOp13
 70
     1
102
RTVSPropertyOp14
 70
     1
102
RTVSPropertyOp15
 70
     1
102
RTVSPropertyOp16
 70
     1
102
RTVSPropertyOp17
 70
     1
102
RTVSPropertyOp18
 70
     1
102
RTVSPropertyOp19
 70
     1
102
RTVSPropertyOp20
 70
     1
102
RTVSPropertyOp21
 70
     1
102
RTVSPropertyOp22
 70
     1
102
RTVSPropertyOp23
 70
     1
102
RTVSPropertyOp24
 70
     1
102
RTVSPropertyOp25
 70
     1
102
RTVSPropertyOp26
 70
     1
102
RTVSPropertyOp27
 70
     1
102
RTVSPropertyOp28
 70
     1
102
RTVSPropertyOp29
 70
     1
102
RTVSPropertyOp30
 70
     1
102
RTVSPropertyOp31
 70
     1
102
RTVSPropertyOp32
 70
     1
  0
XRECORD
  5
568
102
{ACAD_REACTORS
330
567
102
}
330
567
100
AcDbXrecord
280
     1
102
RTVSPropertyOp0
 70
     1
102
RTVSPropertyOp1
 70
     1
102
RTVSPropertyOp2
 70
     1
102
RTVSPropertyOp3
 70
     1
102
RTVSPropertyOp4
 70
     1
102
RTVSPropertyOp5
 70
     1
102
RTVSPropertyOp6
 70
     1
102
RTVSPropertyOp7
 70
     1
102
RTVSPropertyOp8
 70
     1
102
RTVSPropertyOp9
 70
     1
102
RTVSPropertyOp10
 70
     1
102
RTVSPropertyOp11
 70
     1
102
RTVSPropertyOp12
 70
     1
102
RTVSPropertyOp13
 70
     1
102
RTVSPropertyOp14
 70
     1
102
RTVSPropertyOp15
 70
     1
102
RTVSPropertyOp16
 70
     1
102
RTVSPropertyOp17
 70
     1
102
RTVSPropertyOp18
 70
     1
102
RTVSPropertyOp19
 70
     1
102
RTVSPropertyOp20
 70
     1
102
RTVSPropertyOp21
 70
     1
102
RTVSPropertyOp22
 70
     1
102
RTVSPropertyOp23
 70
     1
102
RTVSPropertyOp24
 70
     1
102
RTVSPropertyOp25
 70
     1
102
RTVSPropertyOp26
 70
     1
102
RTVSPropertyOp27
 70
     1
102
RTVSPropertyOp28
 70
     1
102
RTVSPropertyOp29
 70
     1
102
RTVSPropertyOp30
 70
     1
102
RTVSPropertyOp31
 70
     1
102
RTVSPropertyOp32
 70
     1
  0
XRECORD
  5
570
102
{ACAD_REACTORS
330
56F
102
}
330
56F
100
AcDbXrecord
280
     1
102
RTVSPropertyOp0
 70
     1
102
RTVSPropertyOp1
 70
     1
102
RTVSPropertyOp2
 70
     1
102
RTVSPropertyOp3
 70
     1
102
RTVSPropertyOp4
 70
     1
102
RTVSPropertyOp5
 70
     1
102
RTVSPropertyOp6
 70
     1
102
RTVSPropertyOp7
 70
     1
102
RTVSPropertyOp8
 70
     1
102
RTVSPropertyOp9
 70
     1
102
RTVSPropertyOp10
 70
     1
102
RTVSPropertyOp11
 70
     1
102
RTVSPropertyOp12
 70
     1
102
RTVSPropertyOp13
 70
     1
102
RTVSPropertyOp14
 70
     1
102
RTVSPropertyOp15
 70
     1
102
RTVSPropertyOp16
 70
     1
102
RTVSPropertyOp17
 70
     1
102
RTVSPropertyOp18
 70
     1
102
RTVSPropertyOp19
 70
     1
102
RTVSPropertyOp20
 70
     1
102
RTVSPropertyOp21
 70
     1
102
RTVSPropertyOp22
 70
     1
102
RTVSPropertyOp23
 70
     1
102
RTVSPropertyOp24
 70
     1
102
RTVSPropertyOp25
 70
     1
102
RTVSPropertyOp26
 70
     1
102
RTVSPropertyOp27
 70
     1
102
RTVSPropertyOp28
 70
     1
102
RTVSPropertyOp29
 70
     1
102
RTVSPropertyOp30
 70
     1
102
RTVSPropertyOp31
 70
     1
102
RTVSPropertyOp32
 70
     1
  0
XRECORD
  5
578
102
{ACAD_REACTORS
330
577
102
}
330
577
100
AcDbXrecord
280
     1
102
RTVSPropertyOp0
 70
     1
102
RTVSPropertyOp1
 70
     1
102
RTVSPropertyOp2
 70
     1
102
RTVSPropertyOp3
 70
     1
102
RTVSPropertyOp4
 70
     1
102
RTVSPropertyOp5
 70
     1
102
RTVSPropertyOp6
 70
     1
102
RTVSPropertyOp7
 70
     1
102
RTVSPropertyOp8
 70
     1
102
RTVSPropertyOp9
 70
     1
102
RTVSPropertyOp10
 70
     1
102
RTVSPropertyOp11
 70
     1
102
RTVSPropertyOp12
 70
     1
102
RTVSPropertyOp13
 70
     1
102
RTVSPropertyOp14
 70
     1
102
RTVSPropertyOp15
 70
     1
102
RTVSPropertyOp16
 70
     1
102
RTVSPropertyOp17
 70
     1
102
RTVSPropertyOp18
 70
     1
102
RTVSPropertyOp19
 70
     1
102
RTVSPropertyOp20
 70
     1
102
RTVSPropertyOp21
 70
     1
102
RTVSPropertyOp22
 70
     1
102
RTVSPropertyOp23
 70
     1
102
RTVSPropertyOp24
 70
     1
102
RTVSPropertyOp25
 70
     1
102
RTVSPropertyOp26
 70
     1
102
RTVSPropertyOp27
 70
     1
102
RTVSPropertyOp28
 70
     1
102
RTVSPropertyOp29
 70
     1
102
RTVSPropertyOp30
 70
     1
102
RTVSPropertyOp31
 70
     1
102
RTVSPropertyOp32
 70
     1
  0
XRECORD
  5
56C
102
{ACAD_REACTORS
330
56B
102
}
330
56B
100
AcDbXrecord
280
     1
102
RTVSPropertyOp0
 70
     1
102
RTVSPropertyOp1
 70
     1
102
RTVSPropertyOp2
 70
     1
102
RTVSPropertyOp3
 70
     1
102
RTVSPropertyOp4
 70
     1
102
RTVSPropertyOp5
 70
     1
102
RTVSPropertyOp6
 70
     1
102
RTVSPropertyOp7
 70
     1
102
RTVSPropertyOp8
 70
     1
102
RTVSPropertyOp9
 70
     1
102
RTVSPropertyOp10
 70
     1
102
RTVSPropertyOp11
 70
     1
102
RTVSPropertyOp12
 70
     1
102
RTVSPropertyOp13
 70
     1
102
RTVSPropertyOp14
 70
     1
102
RTVSPropertyOp15
 70
     1
102
RTVSPropertyOp16
 70
     1
102
RTVSPropertyOp17
 70
     1
102
RTVSPropertyOp18
 70
     1
102
RTVSPropertyOp19
 70
     1
102
RTVSPropertyOp20
 70
     1
102
RTVSPropertyOp21
 70
     1
102
RTVSPropertyOp22
 70
     1
102
RTVSPropertyOp23
 70
     1
102
RTVSPropertyOp24
 70
     1
102
RTVSPropertyOp25
 70
     1
102
RTVSPropertyOp26
 70
     1
102
RTVSPropertyOp27
 70
     1
102
RTVSPropertyOp28
 70
     1
102
RTVSPropertyOp29
 70
     1
102
RTVSPropertyOp30
 70
     1
102
RTVSPropertyOp31
 70
     1
102
RTVSPropertyOp32
 70
     1
  0
XRECORD
  5
56E
102
{ACAD_REACTORS
330
56D
102
}
330
56D
100
AcDbXrecord
280
     1
102
RTVSPropertyOp0
 70
     1
102
RTVSPropertyOp1
 70
     1
102
RTVSPropertyOp2
 70
     1
102
RTVSPropertyOp3
 70
     1
102
RTVSPropertyOp4
 70
     1
102
RTVSPropertyOp5
 70
     1
102
RTVSPropertyOp6
 70
     1
102
RTVSPropertyOp7
 70
     1
102
RTVSPropertyOp8
 70
     1
102
RTVSPropertyOp9
 70
     1
102
RTVSPropertyOp10
 70
     1
102
RTVSPropertyOp11
 70
     1
102
RTVSPropertyOp12
 70
     1
102
RTVSPropertyOp13
 70
     1
102
RTVSPropertyOp14
 70
     1
102
RTVSPropertyOp15
 70
     1
102
RTVSPropertyOp16
 70
     1
102
RTVSPropertyOp17
 70
     1
102
RTVSPropertyOp18
 70
     1
102
RTVSPropertyOp19
 70
     1
102
RTVSPropertyOp20
 70
     1
102
RTVSPropertyOp21
 70
     1
102
RTVSPropertyOp22
 70
     1
102
RTVSPropertyOp23
 70
     1
102
RTVSPropertyOp24
 70
     1
102
RTVSPropertyOp25
 70
     1
102
RTVSPropertyOp26
 70
     1
102
RTVSPropertyOp27
 70
     1
102
RTVSPropertyOp28
 70
     1
102
RTVSPropertyOp29
 70
     1
102
RTVSPropertyOp30
 70
     1
102
RTVSPropertyOp31
 70
     1
102
RTVSPropertyOp32
 70
     1
  0
XRECORD
  5
576
102
{ACAD_REACTORS
330
575
102
}
330
575
100
AcDbXrecord
280
     1
102
RTVSPropertyOp0
 70
     1
102
RTVSPropertyOp1
 70
     1
102
RTVSPropertyOp2
 70
     1
102
RTVSPropertyOp3
 70
     1
102
RTVSPropertyOp4
 70
     1
102
RTVSPropertyOp5
 70
     1
102
RTVSPropertyOp6
 70
     1
102
RTVSPropertyOp7
 70
     1
102
RTVSPropertyOp8
 70
     1
102
RTVSPropertyOp9
 70
     1
102
RTVSPropertyOp10
 70
     1
102
RTVSPropertyOp11
 70
     1
102
RTVSPropertyOp12
 70
     1
102
RTVSPropertyOp13
 70
     1
102
RTVSPropertyOp14
 70
     1
102
RTVSPropertyOp15
 70
     1
102
RTVSPropertyOp16
 70
     1
102
RTVSPropertyOp17
 70
     1
102
RTVSPropertyOp18
 70
     1
102
RTVSPropertyOp19
 70
     1
102
RTVSPropertyOp20
 70
     1
102
RTVSPropertyOp21
 70
     1
102
RTVSPropertyOp22
 70
     1
102
RTVSPropertyOp23
 70
     1
102
RTVSPropertyOp24
 70
     1
102
RTVSPropertyOp25
 70
     1
102
RTVSPropertyOp26
 70
     1
102
RTVSPropertyOp27
 70
     1
102
RTVSPropertyOp28
 70
     1
102
RTVSPropertyOp29
 70
     1
102
RTVSPropertyOp30
 70
     1
102
RTVSPropertyOp31
 70
     1
102
RTVSPropertyOp32
 70
     1
  0
XRECORD
  5
55A
102
{ACAD_REACTORS
330
559
102
}
330
559
100
AcDbXrecord
280
     1
102
RTVSPropertyOp0
 70
     1
102
RTVSPropertyOp1
 70
     1
102
RTVSPropertyOp2
 70
     1
102
RTVSPropertyOp3
 70
     1
102
RTVSPropertyOp4
 70
     1
102
RTVSPropertyOp5
 70
     1
102
RTVSPropertyOp6
 70
     1
102
RTVSPropertyOp7
 70
     1
102
RTVSPropertyOp8
 70
     1
102
RTVSPropertyOp9
 70
     1
102
RTVSPropertyOp10
 70
     1
102
RTVSPropertyOp11
 70
     1
102
RTVSPropertyOp12
 70
     1
102
RTVSPropertyOp13
 70
     1
102
RTVSPropertyOp14
 70
     1
102
RTVSPropertyOp15
 70
     1
102
RTVSPropertyOp16
 70
     1
102
RTVSPropertyOp17
 70
     1
102
RTVSPropertyOp18
 70
     1
102
RTVSPropertyOp19
 70
     1
102
RTVSPropertyOp20
 70
     1
102
RTVSPropertyOp21
 70
     1
102
RTVSPropertyOp22
 70
     1
102
RTVSPropertyOp23
 70
     1
102
RTVSPropertyOp24
 70
     1
102
RTVSPropertyOp25
 70
     1
102
RTVSPropertyOp26
 70
     1
102
RTVSPropertyOp27
 70
     1
102
RTVSPropertyOp28
 70
     1
102
RTVSPropertyOp29
 70
     1
102
RTVSPropertyOp30
 70
     1
102
RTVSPropertyOp31
 70
     1
102
RTVSPropertyOp32
 70
     1
  0
XRECORD
  5
55C
102
{ACAD_REACTORS
330
55B
102
}
330
55B
100
AcDbXrecord
280
     1
102
RTVSPropertyOp0
 70
     1
102
RTVSPropertyOp1
 70
     1
102
RTVSPropertyOp2
 70
     1
102
RTVSPropertyOp3
 70
     1
102
RTVSPropertyOp4
 70
     1
102
RTVSPropertyOp5
 70
     1
102
RTVSPropertyOp6
 70
     1
102
RTVSPropertyOp7
 70
     1
102
RTVSPropertyOp8
 70
     1
102
RTVSPropertyOp9
 70
     1
102
RTVSPropertyOp10
 70
     1
102
RTVSPropertyOp11
 70
     1
102
RTVSPropertyOp12
 70
     1
102
RTVSPropertyOp13
 70
     1
102
RTVSPropertyOp14
 70
     1
102
RTVSPropertyOp15
 70
     1
102
RTVSPropertyOp16
 70
     1
102
RTVSPropertyOp17
 70
     1
102
RTVSPropertyOp18
 70
     1
102
RTVSPropertyOp19
 70
     1
102
RTVSPropertyOp20
 70
     1
102
RTVSPropertyOp21
 70
     1
102
RTVSPropertyOp22
 70
     1
102
RTVSPropertyOp23
 70
     1
102
RTVSPropertyOp24
 70
     1
102
RTVSPropertyOp25
 70
     1
102
RTVSPropertyOp26
 70
     1
102
RTVSPropertyOp27
 70
     1
102
RTVSPropertyOp28
 70
     1
102
RTVSPropertyOp29
 70
     1
102
RTVSPropertyOp30
 70
     1
102
RTVSPropertyOp31
 70
     1
102
RTVSPropertyOp32
 70
     1
  0
XRECORD
  5
55E
102
{ACAD_REACTORS
330
55D
102
}
330
55D
100
AcDbXrecord
280
     1
102
RTVSPropertyOp0
 70
     1
102
RTVSPropertyOp1
 70
     1
102
RTVSPropertyOp2
 70
     1
102
RTVSPropertyOp3
 70
     1
102
RTVSPropertyOp4
 70
     1
102
RTVSPropertyOp5
 70
     1
102
RTVSPropertyOp6
 70
     1
102
RTVSPropertyOp7
 70
     1
102
RTVSPropertyOp8
 70
     1
102
RTVSPropertyOp9
 70
     1
102
RTVSPropertyOp10
 70
     1
102
RTVSPropertyOp11
 70
     1
102
RTVSPropertyOp12
 70
     1
102
RTVSPropertyOp13
 70
     1
102
RTVSPropertyOp14
 70
     1
102
RTVSPropertyOp15
 70
     1
102
RTVSPropertyOp16
 70
     1
102
RTVSPropertyOp17
 70
     1
102
RTVSPropertyOp18
 70
     1
102
RTVSPropertyOp19
 70
     1
102
RTVSPropertyOp20
 70
     1
102
RTVSPropertyOp21
 70
     1
102
RTVSPropertyOp22
 70
     1
102
RTVSPropertyOp23
 70
     1
102
RTVSPropertyOp24
 70
     1
102
RTVSPropertyOp25
 70
     1
102
RTVSPropertyOp26
 70
     1
102
RTVSPropertyOp27
 70
     1
102
RTVSPropertyOp28
 70
     1
102
RTVSPropertyOp29
 70
     1
102
RTVSPropertyOp30
 70
     1
102
RTVSPropertyOp31
 70
     1
102
RTVSPropertyOp32
 70
     1
  0
XRECORD
  5
560
102
{ACAD_REACTORS
330
55F
102
}
330
55F
100
AcDbXrecord
280
     1
102
RTVSPropertyOp0
 70
     1
102
RTVSPropertyOp1
 70
     1
102
RTVSPropertyOp2
 70
     1
102
RTVSPropertyOp3
 70
     1
102
RTVSPropertyOp4
 70
     1
102
RTVSPropertyOp5
 70
     1
102
RTVSPropertyOp6
 70
     1
102
RTVSPropertyOp7
 70
     1
102
RTVSPropertyOp8
 70
     1
102
RTVSPropertyOp9
 70
     1
102
RTVSPropertyOp10
 70
     1
102
RTVSPropertyOp11
 70
     1
102
RTVSPropertyOp12
 70
     1
102
RTVSPropertyOp13
 70
     1
102
RTVSPropertyOp14
 70
     1
102
RTVSPropertyOp15
 70
     1
102
RTVSPropertyOp16
 70
     1
102
RTVSPropertyOp17
 70
     1
102
RTVSPropertyOp18
 70
     1
102
RTVSPropertyOp19
 70
     1
102
RTVSPropertyOp20
 70
     1
102
RTVSPropertyOp21
 70
     1
102
RTVSPropertyOp22
 70
     1
102
RTVSPropertyOp23
 70
     1
102
RTVSPropertyOp24
 70
     1
102
RTVSPropertyOp25
 70
     1
102
RTVSPropertyOp26
 70
     1
102
RTVSPropertyOp27
 70
     1
102
RTVSPropertyOp28
 70
     1
102
RTVSPropertyOp29
 70
     1
102
RTVSPropertyOp30
 70
     1
102
RTVSPropertyOp31
 70
     1
102
RTVSPropertyOp32
 70
     1
  0
XRECORD
  5
574
102
{ACAD_REACTORS
330
573
102
}
330
573
100
AcDbXrecord
280
     1
102
RTVSPropertyOp0
 70
     1
102
RTVSPropertyOp1
 70
     1
102
RTVSPropertyOp2
 70
     1
102
RTVSPropertyOp3
 70
     1
102
RTVSPropertyOp4
 70
     1
102
RTVSPropertyOp5
 70
     1
102
RTVSPropertyOp6
 70
     1
102
RTVSPropertyOp7
 70
     1
102
RTVSPropertyOp8
 70
     1
102
RTVSPropertyOp9
 70
     1
102
RTVSPropertyOp10
 70
     1
102
RTVSPropertyOp11
 70
     1
102
RTVSPropertyOp12
 70
     1
102
RTVSPropertyOp13
 70
     1
102
RTVSPropertyOp14
 70
     1
102
RTVSPropertyOp15
 70
     1
102
RTVSPropertyOp16
 70
     1
102
RTVSPropertyOp17
 70
     1
102
RTVSPropertyOp18
 70
     1
102
RTVSPropertyOp19
 70
     1
102
RTVSPropertyOp20
 70
     1
102
RTVSPropertyOp21
 70
     1
102
RTVSPropertyOp22
 70
     1
102
RTVSPropertyOp23
 70
     1
102
RTVSPropertyOp24
 70
     1
102
RTVSPropertyOp25
 70
     1
102
RTVSPropertyOp26
 70
     1
102
RTVSPropertyOp27
 70
     1
102
RTVSPropertyOp28
 70
     1
102
RTVSPropertyOp29
 70
     1
102
RTVSPropertyOp30
 70
     1
102
RTVSPropertyOp31
 70
     1
102
RTVSPropertyOp32
 70
     1
  0
XRECORD
  5
56A
102
{ACAD_REACTORS
330
569
102
}
330
569
100
AcDbXrecord
280
     1
102
RTVSPropertyOp0
 70
     1
102
RTVSPropertyOp1
 70
     1
102
RTVSPropertyOp2
 70
     1
102
RTVSPropertyOp3
 70
     1
102
RTVSPropertyOp4
 70
     1
102
RTVSPropertyOp5
 70
     1
102
RTVSPropertyOp6
 70
     1
102
RTVSPropertyOp7
 70
     1
102
RTVSPropertyOp8
 70
     1
102
RTVSPropertyOp9
 70
     1
102
RTVSPropertyOp10
 70
     1
102
RTVSPropertyOp11
 70
     1
102
RTVSPropertyOp12
 70
     1
102
RTVSPropertyOp13
 70
     1
102
RTVSPropertyOp14
 70
     1
102
RTVSPropertyOp15
 70
     1
102
RTVSPropertyOp16
 70
     1
102
RTVSPropertyOp17
 70
     1
102
RTVSPropertyOp18
 70
     1
102
RTVSPropertyOp19
 70
     1
102
RTVSPropertyOp20
 70
     1
102
RTVSPropertyOp21
 70
     1
102
RTVSPropertyOp22
 70
     1
102
RTVSPropertyOp23
 70
     1
102
RTVSPropertyOp24
 70
     1
102
RTVSPropertyOp25
 70
     1
102
RTVSPropertyOp26
 70
     1
102
RTVSPropertyOp27
 70
     1
102
RTVSPropertyOp28
 70
     1
102
RTVSPropertyOp29
 70
     1
102
RTVSPropertyOp30
 70
     1
102
RTVSPropertyOp31
 70
     1
102
RTVSPropertyOp32
 70
     1
  0
XRECORD
  5
572
102
{ACAD_REACTORS
330
571
102
}
330
571
100
AcDbXrecord
280
     1
102
RTVSPropertyOp0
 70
     1
102
RTVSPropertyOp1
 70
     1
102
RTVSPropertyOp2
 70
     1
102
RTVSPropertyOp3
 70
     1
102
RTVSPropertyOp4
 70
     1
102
RTVSPropertyOp5
 70
     1
102
RTVSPropertyOp6
 70
     1
102
RTVSPropertyOp7
 70
     1
102
RTVSPropertyOp8
 70
     1
102
RTVSPropertyOp9
 70
     1
102
RTVSPropertyOp10
 70
     1
102
RTVSPropertyOp11
 70
     1
102
RTVSPropertyOp12
 70
     1
102
RTVSPropertyOp13
 70
     1
102
RTVSPropertyOp14
 70
     1
102
RTVSPropertyOp15
 70
     1
102
RTVSPropertyOp16
 70
     1
102
RTVSPropertyOp17
 70
     1
102
RTVSPropertyOp18
 70
     1
102
RTVSPropertyOp19
 70
     1
102
RTVSPropertyOp20
 70
     1
102
RTVSPropertyOp21
 70
     1
102
RTVSPropertyOp22
 70
     1
102
RTVSPropertyOp23
 70
     1
102
RTVSPropertyOp24
 70
     1
102
RTVSPropertyOp25
 70
     1
102
RTVSPropertyOp26
 70
     1
102
RTVSPropertyOp27
 70
     1
102
RTVSPropertyOp28
 70
     1
102
RTVSPropertyOp29
 70
     1
102
RTVSPropertyOp30
 70
     1
102
RTVSPropertyOp31
 70
     1
102
RTVSPropertyOp32
 70
     1
  0
ENDSEC
  0
EOF
